找回密码

蓝光电影网

查看: 45|回复: 0

[剧情] 极道追踪[国粤多音轨/简繁英字幕].Zodiac.Killer.1991.BluRay.1080p.x264.TrueHD.5.1.2Audio-MOMOHD 11.91GB

[复制链接]
蓝光币
7
发表于 2022-7-29 01:56:31 | 显示全部楼层 |阅读模式


◎标  题 极道追踪
◎译  名 Zodiac Killer
◎片  名 極道追蹤
◎年  代 1991
◎产  地 中国香港
◎类  别 剧情 / 恋爱 / 犯罪
◎语  言 粤语
◎上映日期 1991-07-20
◎IMDb评分 5.4/10 (163人评价)
◎IMDb链接 https://www.imdb.com/title/tt0102158/
◎豆瓣评分 6.3/10 (1862人评价)
◎豆瓣链接 https://movie.douban.com/subject/1298745/
◎片  长 97 分钟
◎导  演 许鞍华 Ann Hui
◎编  剧 杜国威 Raymond To
◎演  员 刘德华 Andy Lau
       钟楚红 Cherie Chung
       庹宗华 Chung-Hua Tou
       石田纯一 Junichi Ishida
       岸田本日子 Kyôko Kishida
       佐藤忠男 Tadao Sato
       渡边哲 Tetsu Watanabe
       孙鹏 Peng Sun
       仓田保昭 Yasuaki Kurata
       曾志伟 Eric Tsang
       周伟权 Wai-kuen Chow
       钟志文 David Chung
       金马 Ma Kam
       胡大为 David Wu
       李仁港 Daniel Lee
◎标  签 许鞍华 / 刘德华 / 香港 / 钟楚红 / 香港电影 / 1991 / 剧情 / 犯罪
◎简  介
  中国香港留门生Ben(刘德华饰)与好友兼同学张直(庹宗华饰)、明仔在日本无意向学,却满怀斗志闯荡东瀛,只为可以高人一等。张直寻觅青梅竹马的爱人不获,明仔搭上酒吧陪酒的老板娘,一心想成为山口组老迈石川的妹夫。                                    
                                Ben在此时偶遇出来陪酒赚外快的中国大陆女留门生铁男(钟楚红饰),二人结缘。                                    
                                铁男与好友美美寄人篱下地住在混混包管人的手下,受尽侮辱,终有一日铁男忍受不住,单独出走......
  1. ##### MediaInfo ######
  2. General
  3. Unique ID                                : 91453543804832688406842273620976061027 (0x44CD4FD59FF2A706830E2AEAB48DCA63)
  4. Complete name                            : Zodiac.Killer.1991.BluRay.1080p.x264.TrueHD.5.1.2Audio-MOMOHD.mkv
  5. Format                                   : Matroska
  6. Format version                           : Version 4
  7. File size                                : 11.9 GiB
  8. Duration                                 : 1 h 37 min
  9. Overall bit rate mode                    : Variable
  10. Overall bit rate                         : 17.4 Mb/s
  11. Encoded date                             : UTC 2019-02-13 07:21:51
  12. Writing application                      : mkvmerge v31.0.0 ('Dolores In A Shoestand') 64-bit
  13. Writing library                          : libebml v1.3.6 + libmatroska v1.4.9
  14. Video
  15. ID                                       : 1
  16. Format                                   : AVC
  17. Format/Info                              : Advanced Video Codec
  18. Format profile                           : [email protected]
  19. Format settings                          : CABAC / 4 Ref Frames
  20. Format settings, CABAC                   : Yes
  21. Format settings, Reference frames        : 4 frames
  22. Codec ID                                 : V_MPEG4/ISO/AVC
  23. Duration                                 : 1 h 37 min
  24. Bit rate                                 : 11.0 Mb/s
  25. Width                                    : 1 920 pixels
  26. Height                                   : 1 080 pixels
  27. Display aspect ratio                     : 16:9
  28. Frame rate mode                          : Constant
  29. Frame rate                               : 23.976 (24000/1001/53875) FPS
  30. Color space                              : YUV
  31. Chroma subsampling                       : 4:2:0
  32. Bit depth                                : 8 bits
  33. Scan type                                : Progressive
  34. Bits/(Pixel*Frame)                       : 0.221
  35. Stream size                              : 7.52 GiB (63%)
  36. Title                                    : [email protected]
  37. Writing library                          : x264 core 148 r2692+46 0f71ed5 7mod [[email protected] X86_64]
  38. Encoding settings                        : cabac=1 / ref=4 / deblock=1:-3:-3 / analyse=0x3:0x113 / me=umh / subme=11 / psy=1 / fade_compensate=0.00 / psy_rd=1.00:0.00 / mixed_ref=1 / me_range=48 / chroma_me=1 / trellis=2 / 8x8dct=1 / cqm=0 / deadzone=11,6 / fast_pskip=0 / chroma_qp_offset=-2 / threads=24 / lookahead_threads=4 / sliced_threads=0 / nr=0 / decimate=0 / interlaced=0 / NTM4NzU= / bluray_compat=0 / constrained_intra=0 / fgo=0 / bframes=8 / b_pyramid=2 / b_adapt=2 / b_bias=0 / direct=3 / weightb=1 / open_gop=0 / weightp=2 / keyint=250 / keyint_min=23 / NTM4NzU=uuDQuD2mJt9fsCf / scenecut=40 / intra_refresh=0 / rc_lookahead=60 / rc=crf / mbtree=0 / crf=22.5000 / qcomp=0.60 / qpmin=0:0:0 / qpmax=32:32:32 / qpstep=4 / vbv_maxrate=40000 / vbv_bufsize=30000 / crf_max=0.0 / nal_hrd=none / filler=0 / NTM4NzU=LmsMAP37EqsCpk / ip_ratio=1.30 / pb_ratio=1.20 / aq=4:0.80 / aq-sensitivity=10.00 / aq-factor=1.00:1.00:1.00 / aq2=0 / aq3=0
  39. Language                                 : Chinese
  40. Default                                  : Yes
  41. Forced                                   : No
  42. Color range                              : Limited
  43. Color primaries                          : BT.709
  44. Transfer characteristics                 : BT.709
  45. Matrix coefficients                      : BT.709
  46. Audio #1
  47. ID                                       : 2
  48. Format                                   : MLP FBA
  49. Format/Info                              : Meridian Lossless Packing FBA
  50. Commercial name                          : Dolby TrueHD
  51. Codec ID                                 : A_TRUEHD
  52. Duration                                 : 1 h 37 min
  53. Bit rate mode                            : Variable
  54. Bit rate                                 : 3 055 kb/s
  55. Maximum bit rate                         : 4 500 kb/s
  56. Channel(s)                               : 6 channels
  57. Channel layout                           : L R C LFE Ls Rs
  58. Sampling rate                            : 96.0 kHz
  59. Frame rate                               : 1 200.000 FPS (80 SPF)
  60. Compression mode                         : Lossless
  61. Stream size                              : 2.09 GiB (18%)
  62. Title                                    : 粤语
  63. Language                                 : Chinese
  64. Default                                  : Yes
  65. Forced                                   : No
  66. Audio #2
  67. ID                                       : 3
  68. Format                                   : MLP FBA
  69. Format/Info                              : Meridian Lossless Packing FBA
  70. Commercial name                          : Dolby TrueHD
  71. Codec ID                                 : A_TRUEHD
  72. Duration                                 : 1 h 37 min
  73. Bit rate mode                            : Variable
  74. Bit rate                                 : 3 206 kb/s
  75. Maximum bit rate                         : 4 536 kb/s
  76. Channel(s)                               : 6 channels
  77. Channel layout                           : L R C LFE Ls Rs
  78. Sampling rate                            : 96.0 kHz
  79. Frame rate                               : 1 200.000 FPS (80 SPF)
  80. Compression mode                         : Lossless
  81. Stream size                              : 2.19 GiB (18%)
  82. Title                                    : 国语
  83. Language                                 : Chinese
  84. Default                                  : No
  85. Forced                                   : No
  86. Text #1
  87. ID                                       : 4
  88. Format                                   : PGS
  89. Muxing mode                              : zlib
  90. Codec ID                                 : S_HDMV/PGS
  91. Codec ID/Info                            : Picture based subtitle format used on BDs/HD-DVDs
  92. Duration                                 : 1 h 34 min
  93. Bit rate                                 : 18.8 kb/s
  94. Count of elements                        : 1234
  95. Stream size                              : 12.6 MiB (0%)
  96. Title                                    : 简中
  97. Language                                 : Chinese
  98. Default                                  : Yes
  99. Forced                                   : No
  100. Text #2
  101. ID                                       : 5
  102. Format                                   : PGS
  103. Muxing mode                              : zlib
  104. Codec ID                                 : S_HDMV/PGS
  105. Codec ID/Info                            : Picture based subtitle format used on BDs/HD-DVDs
  106. Duration                                 : 1 h 34 min
  107. Bit rate                                 : 19.3 kb/s
  108. Count of elements                        : 1234
  109. Stream size                              : 12.9 MiB (0%)
  110. Title                                    : 繁中
  111. Language                                 : Chinese
  112. Default                                  : No
  113. Forced                                   : No
  114. Text #3
  115. ID                                       : 6
  116. Format                                   : PGS
  117. Muxing mode                              : zlib
  118. Codec ID                                 : S_HDMV/PGS
  119. Codec ID/Info                            : Picture based subtitle format used on BDs/HD-DVDs
  120. Duration                                 : 1 h 31 min
  121. Bit rate                                 : 21.4 kb/s
  122. Count of elements                        : 1232
  123. Stream size                              : 13.9 MiB (0%)
  124. Title                                    : 英文
  125. Language                                 : English
  126. Default                                  : No
  127. Forced                                   : No
  128. Menu
  129. 00:00:00.000                             : :绗?01 绔?
  130. 00:06:29.431                             : :绗?02 绔?
  131. 00:17:36.305                             : :绗?03 绔?
  132. 00:23:36.707                             : :绗?04 绔?
  133. 00:32:04.673                             : :绗?05 绔?
  134. 00:41:00.208                             : :绗?06 绔?
  135. 00:50:10.382                             : :绗?07 绔?
  136. 00:56:24.464                             : :绗?08 绔?
  137. 01:03:50.452                             : :绗?09 绔?
  138. 01:13:12.263                             : :绗?10 绔?
  139. 01:22:27.442                             : :绗?11 绔?
  140. 01:30:11.448                             : :绗?12 绔?
复制代码

















保举请利用qBittorrent,utorrent,transmission等标准BT软件下载!以获得最快速度。奉求保种!





回复

使用道具 举报

懒得打字嘛,点击右侧快捷回复 【右侧内容,后台自定义】
您需要登录后才可以回帖 登录 | 立即加入

本版积分规则

Archiver|小黑屋| 蓝光电影网 |网站地图

Copyright © 2021 Comsenz Inc. Powered by 蓝光电影网

蓝光电影网

本站内容由用户自主分享和转载自互联网,转载目的在于传递更多信息,并不代表本网赞同其观点和对其真实性负责。

如有侵权、违反国家法律政策行为,请联系我们,我们会第一时间及时清除和处理!

举报反馈邮箱:[email protected]

快速回复 返回顶部 返回列表