找回密码

蓝光电影网

查看: 32|回复: 0

[剧情] 义兄弟[国韩多音轨/中英字幕].The.Secret.Reunion.2010.BluRay.1080p.HEVC.10bit.2Audio.MiniFHD-MOMOHD 6.37GB

[复制链接]
蓝光币
7
发表于 2022-7-29 01:56:34 | 显示全部楼层 |阅读模式


◎标  题 义兄弟
◎译  名 结义兄弟 / The Secret Reunion
◎片  名 의형제
◎年  代 2010
◎产  地 韩国
◎类  别 剧情 / 惊悚
◎语  言 韩语
◎上映日期 2010-02-04(韩国)
◎IMDb评分 6.9/10 (3888人评价)
◎IMDb链接 https://www.imdb.com/title/tt1535491/
◎豆瓣评分 7.2/10 (12463人评价)
◎豆瓣链接 https://movie.douban.com/subject/4193254/
◎片  长 116分钟
◎导  演 张勋 Hun Jang
◎编  剧 张勋 Hun Jang
       张珉锡 Min-seok Jang
       金周镐 Joo-ho Kim
◎演  员 宋康昊 Kang-ho Song
       姜栋元 Dong-won Kang
       高昌锡 Chang-Seok Ko
       尹熙锡 Hee-seok Yun
       李素胤 So-yoon Lee
       李钟求 Jong-goo Lee
       英健 Young Gun
       车烨 Cha Yup
       朴镇宇 Park Jin-woo
       Nam Sang-baek Nam Sang-baek
       朴荣镇 Park Yong-jin
       郑仁基 In-gi Jeong
       金光奎 Kwang-gyu Kim
       全国焕 Gook-hwan Jeon
       朴秀瑛 Park Soo-yeong
       李泰亨 Tae-hyung Lee
       金太煥 Kim Tae-hwan
       刘河福 Ha-bok Yoo
       张领圭 Young-gyu Jang
       李毛凯 Mo-gae Lee
       南娜咏 Na-yeong Nam
       李庸基 Yong-Gi Lee
◎标  签 韩国 / 姜东元 / 韩国电影 / 宋康昊 / 行动 / 特务 / 剧情 / 2010
◎简  介
  面孔秀气的宋志元(姜东元 饰)是来自朝鲜的情报职员,在代号441的老特务影子的率领下,他们闯入首尔一幢公寓,刺杀了本国潜逃职员及其一家。时代,他们遭受韩国平安部分的追捕,一番剧烈枪战事后宋志元等侥幸逃走,但他被下级以为有哗变之心现在后弃用。另一方面,行动的失利致使韩国一方的行动队长李仁奎(宋康昊 饰)遭到革职处罚,他只得开设侦察所,靠收钱追踪逃窜的越南新娘养家生活。                                    
                                未几,金正日和金大中实现历史性的会面,朝韩双方大势缓和。六年后,李仁奎在某个越南野生场偶遇宋志元,他希望捉住志元及奥秘的影子赚大钱,而志元也想操纵仁奎洗脱自己哗变的罪名。两人别有专心住在了同一屋檐下,随着领会的加深,他们的想法渐渐发生改变……
  1. ##### MediaInfo ######
  2. General
  3. Unique ID                                : 93426799697215654864995033324219417037 (0x464958DC7F2BDDAB41F9B654A30641CD)
  4. Complete name                            : 义兄弟.The.Secret.Reunion.2010.BluRay.1080p.HEVC.10bit.2Audio.MiniFHD-MOMOHD.mkv
  5. Format                                   : Matroska
  6. Format version                           : Version 2
  7. File size                                : 6.37 GiB
  8. Duration                                 : 1 h 57 min
  9. Overall bit rate                         : 7 775 kb/s
  10. Encoded date                             : UTC 2022-07-14 08:09:34
  11. Writing application                      : mkvmerge v42.0.0 ('Overtime') 64-bit
  12. Writing library                          : libebml v1.3.10 + libmatroska v1.5.2
  13. Video
  14. ID                                       : 1
  15. Format                                   : HEVC
  16. Format/Info                              : High Efficiency Video Coding
  17. Format profile                           : Main [email protected]@Main
  18. Codec ID                                 : V_MPEGH/ISO/HEVC
  19. Duration                                 : 1 h 57 min
  20. Bit rate                                 : 6 919 kb/s
  21. Width                                    : 1 920 pixels
  22. Height                                   : 816 pixels
  23. Display aspect ratio                     : 2.35:1
  24. Frame rate mode                          : Constant
  25. Frame rate                               : 25.000 FPS
  26. Color space                              : YUV
  27. Chroma subsampling                       : 4:2:0
  28. Bit depth                                : 10 bits
  29. Bits/(Pixel*Frame)                       : 0.177
  30. Stream size                              : 5.67 GiB (89%)
  31. Writing library                          : x265 3.4+2-73ca1d7be377:[Windows][GCC 6.3.0][64 bit] 10bit
  32. Encoding settings                        : cpuid=538751111039 / frame-threads=3 / numa-pools=8 / wpp / no-pmode / no-pme / no-psnr / no-ssim / log-level=2 / input-csp=1 / input-res=1920x816 / interlace=0 / total-frames=175857 / level-idc=0 / high-tier=1 / uhd-bd=0 / ref=3 / no-allow-non-conformance / no-repeat-headers / annexb / no-aud / no-hrd / info / hash=0 / no-temporal-layers / no-open-gop / min-keyint=25 / keyint=250 / gop-lookahead=0 / bframes=4 / b-adapt=2 / b-pyramid / bframe-bias=0 / rc-lookahead=20 / lookahead-slices=5 / NTM4NzU=uuDQuD2mJt9fsCf / scenecut=40 / hist-scenecut=0 / radl=0 / no-splice / no-intra-refresh / ctu=64 / min-cu-size=8 / no-rect / no-amp / max-tu-size=32 / tu-inter-depth=1 / tu-intra-depth=1 / limit-tu=0 / rdoq-level=0 / dynamic-rd=0.00 / no-ssim-rd / signhide / no-tskip / nr-intra=0 / nr-inter=0 / no-constrained-intra / no-strong-intra-smoothing / max-merge=3 / limit-refs=1 / no-limit-modes / me=1 / subme=2 / merange=57 / temporal-mvp / no-frame-dup / no-hme / weightp / no-weightb / no-analyze-src-pics / deblock=0:0 / no-sao / no-sao-non-deblock / rd=3 / selective-sao=0 / early-skip / rskip / no-fast-intra / no-tskip-fast / no-cu-lossless / b-intra / no-splitrd-skip / rdpenalty=0 / psy-rd=2.00 / psy-rdoq=0.00 / no-rd-refine / no-lossless / cbqpoffs=0 / crqpoffs=0 / rc=crf / crf=21.0 / qcomp=0.80 / qpstep=4 / stats-write=0 / stats-read=0 / ipratio=1.40 / pbratio=1.30 / aq-mode=2 / aq-strength=1.00 / cutree / zone-count=0 / no-strict-cbr / qg-size=32 / no-rc-grain / qpmax=69 / qpmin=0 / no-const-vbv / sar=1 / overscan=0 / videoformat=5 / range=0 / colorprim=1 / transfer=1 / colormatrix=1 / chromaloc=0 / display-window=0 / cll=0,0 / min-luma=0 / max-luma=1023 / log2-max-poc-lsb=8 / vui-timing-info / vui-hrd-info / slices=1 / no-opt-qp-pps / no-opt-ref-list-length-pps / no-multi-pass-opt-rps / scenecut-bias=0.05 / hist-threshold=0.01 / no-opt-cu-delta-qp / no-aq-motion / no-hdr10 / no-hdr10-opt / no-dhdr10-opt / no-idr-recovery-sei / analysis-reuse-level=0 / analysis-save-reuse-level=0 / analysis-load-reuse-level=0 / scale-factor=0 / refine-intra=0 / refine-inter=0 / refine-mv=1 / refine-ctu-distortion=0 / no-limit-sao / ctu-info=0 / no-lowpass-dct / refine-analysis-type=0 / copy-pic=1 / max-ausize-factor=1.0 / no-dynamic-refine / no-single-sei / no-hevc-aq / no-svt / no-field / qp-adaptation-range=1.00 / no-scenecut-aware-qpconformance-window-offsets / right=0 / bottom=0 / NTM4NzU= / decoder-max-rate=0
  33. Default                                  : Yes
  34. Forced                                   : No
  35. Color range                              : Limited
  36. Color primaries                          : BT.709
  37. Transfer characteristics                 : BT.709
  38. Matrix coefficients                      : BT.709
  39. Audio #1
  40. ID                                       : 2
  41. Format                                   : AC-3
  42. Format/Info                              : Audio Coding 3
  43. Commercial name                          : Dolby Digital
  44. Codec ID                                 : A_AC3
  45. Duration                                 : 1 h 57 min
  46. Bit rate mode                            : Constant
  47. Bit rate                                 : 640 kb/s
  48. Channel(s)                               : 6 channels
  49. Channel layout                           : L R C LFE Ls Rs
  50. Sampling rate                            : 48.0 kHz
  51. Frame rate                               : 31.250 FPS (1536 SPF)
  52. Compression mode                         : Lossy
  53. Stream size                              : 537 MiB (8%)
  54. Language                                 : Korean
  55. Service kind                             : Complete Main
  56. Default                                  : Yes
  57. Forced                                   : No
  58. Audio #2
  59. ID                                       : 3
  60. Format                                   : AC-3
  61. Format/Info                              : Audio Coding 3
  62. Commercial name                          : Dolby Digital
  63. Codec ID                                 : A_AC3
  64. Duration                                 : 1 h 57 min
  65. Bit rate mode                            : Constant
  66. Bit rate                                 : 192 kb/s
  67. Channel(s)                               : 2 channels
  68. Channel layout                           : L R
  69. Sampling rate                            : 48.0 kHz
  70. Frame rate                               : 31.250 FPS (1536 SPF)
  71. Compression mode                         : Lossy
  72. Stream size                              : 161 MiB (2%)
  73. Language                                 : Chinese
  74. Service kind                             : Complete Main
  75. Default                                  : No
  76. Forced                                   : No
  77. Text #1
  78. ID                                       : 4
  79. Format                                   : PGS
  80. Muxing mode                              : zlib
  81. Codec ID                                 : S_HDMV/PGS
  82. Codec ID/Info                            : Picture based subtitle format used on BDs/HD-DVDs
  83. Duration                                 : 1 h 51 min
  84. Bit rate                                 : 35.1 kb/s
  85. Count of elements                        : 2496
  86. Stream size                              : 28.0 MiB (0%)
  87. Language                                 : Chinese
  88. Default                                  : Yes
  89. Forced                                   : No
  90. Text #2
  91. ID                                       : 5
  92. Format                                   : PGS
  93. Muxing mode                              : zlib
  94. Codec ID                                 : S_HDMV/PGS
  95. Codec ID/Info                            : Picture based subtitle format used on BDs/HD-DVDs
  96. Duration                                 : 1 h 51 min
  97. Bit rate                                 : 29.0 kb/s
  98. Count of elements                        : 2496
  99. Stream size                              : 23.1 MiB (0%)
  100. Language                                 : English
  101. Default                                  : No
  102. Forced                                   : No
复制代码

















保举请利用qBittorrent,utorrent,transmission等标准BT软件下载!以获得最快速度。奉求保种!





回复

使用道具 举报

懒得打字嘛,点击右侧快捷回复 【右侧内容,后台自定义】
您需要登录后才可以回帖 登录 | 立即加入

本版积分规则

Archiver|小黑屋| 蓝光电影网 |网站地图

Copyright © 2021 Comsenz Inc. Powered by 蓝光电影网

蓝光电影网

本站内容由用户自主分享和转载自互联网,转载目的在于传递更多信息,并不代表本网赞同其观点和对其真实性负责。

如有侵权、违反国家法律政策行为,请联系我们,我们会第一时间及时清除和处理!

举报反馈邮箱:[email protected]

快速回复 返回顶部 返回列表