找回密码

蓝光电影网

查看: 53|回复: 0

[剧情] 杀手[中文字幕].TUEURS.2017.BluRay.1080p.x264.DD5.1-MOMOHD 14.96GB

[复制链接]
蓝光币
7
发表于 2022-7-29 01:56:35 | 显示全部楼层 |阅读模式


◎标  题 杀手
◎译  名 Above the Law
◎片  名 Tueurs
◎年  代 2017
◎产  地 法国
◎类  别 惊悚
◎语  言 法语
◎上映日期 2017-09-05(威尼斯电影节) / 2017-12-06(法国)
◎IMDb评分 6.1/10 (1429人评价)
◎IMDb链接 https://www.imdb.com/title/tt6901252/
◎豆瓣评分 6.4/10 (132人评价)
◎豆瓣链接 https://movie.douban.com/subject/30207741/
◎片  长 86分钟
◎编  剧 吉奥达诺·戈德里尼 Giordano Gederlini
◎演  员 奥利维埃·古尔梅 Olivier Gourmet
       卢巴纳·阿兹巴尔 Lubna Azabal
       凯文·让森斯 Kevin Janssens
       伯利·兰内尔 Bouli Lanners
       奥利弗·邦泽 Olivier Bonjour
       安妮·考森斯 Anne Coesens
       斯蒂芬妮·克雷恩考尔 Stéphanie Crayencour
◎简  介
  The film tells the story of Frank Valken, a notorious robber who easily commit a last great assault. Or that he thinks at least - Valken and his gang are involved in a crime case of thirty years ago and are the perfect suspects for the murder command that is back with a vengeance.
  1. ##### MediaInfo ######
  2. General
  3. Unique ID                                : 322139936063908889988637850175493913052 (0xF259E51923B1539948E675B32DCC39DC)
  4. Complete name                            : TUEURS.2017.BluRay.1080p.x264.DD5.1-MOMOHD.mkv
  5. Format                                   : Matroska
  6. Format version                           : Version 4
  7. File size                                : 15.0 GiB
  8. Duration                                 : 1 h 26 min
  9. Overall bit rate                         : 24.8 Mb/s
  10. Encoded date                             : UTC 2019-02-21 13:02:56
  11. Writing application                      : mkvmerge v26.0.0 ('In The Game') 64-bit
  12. Writing library                          : libebml v1.3.6 + libmatroska v1.4.9
  13. Video
  14. ID                                       : 6
  15. Format                                   : AVC
  16. Format/Info                              : Advanced Video Codec
  17. Format profile                           : [email protected]
  18. Format settings                          : CABAC / 5 Ref Frames
  19. Format settings, CABAC                   : Yes
  20. Format settings, Reference frames        : 5 frames
  21. Codec ID                                 : V_MPEG4/ISO/AVC
  22. Duration                                 : 1 h 26 min
  23. Bit rate                                 : 23.7 Mb/s
  24. Width                                    : 1 920 pixels
  25. Height                                   : 800 pixels
  26. Display aspect ratio                     : 2.40:1
  27. Frame rate mode                          : Constant
  28. Frame rate                               : 24.000 FPS
  29. Color space                              : YUV
  30. Chroma subsampling                       : 4:2:0
  31. Bit depth                                : 8 bits
  32. Scan type                                : Progressive
  33. Bits/(Pixel*Frame)                       : 0.643
  34. Stream size                              : 14.3 GiB (95%)
  35. Writing library                          : x264 core 157 r2932 303c484
  36. Encoding settings                        : cabac=1 / ref=5 / deblock=1:-3:-3 / analyse=0x3:0x133 / me=umh / subme=10 / psy=1 / psy_rd=1.00:0.00 / mixed_ref=1 / me_range=32 / chroma_me=1 / trellis=2 / 8x8dct=1 / cqm=0 / deadzone=21,11 / fast_pskip=0 / chroma_qp_offset=-2 / threads=12 / lookahead_threads=3 / sliced_threads=0 / nr=0 / decimate=0 / interlaced=0 / NTM4NzU= / bluray_compat=0 / constrained_intra=0 / bframes=16 / b_pyramid=2 / b_adapt=2 / b_bias=0 / direct=3 / weightb=1 / open_gop=0 / weightp=2 / keyint=250 / keyint_min=24 / NTM4NzU=uuDQuD2mJt9fsCf / scenecut=40 / intra_refresh=0 / rc=crf / mbtree=0 / crf=14.0 / qcomp=0.60 / qpmin=0 / qpmax=69 / qpstep=4 / NTM4NzU=LmsMAP37EqsCpk / ip_ratio=1.40 / pb_ratio=1.30 / aq=2:1.00
  37. Language                                 : French
  38. Default                                  : Yes
  39. Forced                                   : No
  40. Color range                              : Limited
  41. Color primaries                          : BT.709
  42. Matrix coefficients                      : BT.709
  43. Audio
  44. ID                                       : 5
  45. Format                                   : AC-3
  46. Format/Info                              : Audio Coding 3
  47. Commercial name                          : Dolby Digital
  48. Codec ID                                 : A_AC3
  49. Duration                                 : 1 h 26 min
  50. Bit rate mode                            : Constant
  51. Bit rate                                 : 640 kb/s
  52. Channel(s)                               : 6 channels
  53. Channel layout                           : L R C LFE Ls Rs
  54. Sampling rate                            : 48.0 kHz
  55. Frame rate                               : 31.250 FPS (1536 SPF)
  56. Compression mode                         : Lossy
  57. Stream size                              : 395 MiB (3%)
  58. Language                                 : French
  59. Service kind                             : Complete Main
  60. Default                                  : Yes
  61. Forced                                   : No
  62. Text #1
  63. ID                                       : 1
  64. Format                                   : UTF-8
  65. Codec ID                                 : S_TEXT/UTF8
  66. Codec ID/Info                            : UTF-8 Plain Text
  67. Language                                 : Chinese
  68. Default                                  : No
  69. Forced                                   : No
  70. Text #2
  71. ID                                       : 2
  72. Format                                   : UTF-8
  73. Codec ID                                 : S_TEXT/UTF8
  74. Codec ID/Info                            : UTF-8 Plain Text
  75. Language                                 : Chinese
  76. Default                                  : No
  77. Forced                                   : No
  78. Text #3
  79. ID                                       : 3
  80. Format                                   : UTF-8
  81. Codec ID                                 : S_TEXT/UTF8
  82. Codec ID/Info                            : UTF-8 Plain Text
  83. Language                                 : French
  84. Default                                  : No
  85. Forced                                   : No
  86. Text #4
  87. ID                                       : 4
  88. Format                                   : UTF-8
  89. Codec ID                                 : S_TEXT/UTF8
  90. Codec ID/Info                            : UTF-8 Plain Text
  91. Language                                 : English
  92. Default                                  : Yes
  93. Forced                                   : No
  94. Menu
  95. 00:00:00.000                             : en:00:00:00.000
  96. 00:06:11.833                             : en:00:06:11.833
  97. 00:12:55.833                             : en:00:12:55.833
  98. 00:21:48.417                             : en:00:21:48.417
  99. 00:30:14.750                             : en:00:30:14.750
  100. 00:38:50.708                             : en:00:38:50.708
  101. 00:49:08.125                             : en:00:49:08.125
  102. 00:59:42.792                             : en:00:59:42.792
  103. 01:14:54.042                             : en:01:14:54.042
  104. 01:22:06.917                             : en:01:22:06.917
复制代码

















保举请利用qBittorrent,utorrent,transmission等标准BT软件下载!以获得最快速度。奉求保种!





回复

使用道具 举报

懒得打字嘛,点击右侧快捷回复 【右侧内容,后台自定义】
您需要登录后才可以回帖 登录 | 立即加入

本版积分规则

Archiver|小黑屋| 蓝光电影网 |网站地图

Copyright © 2021 Comsenz Inc. Powered by 蓝光电影网

蓝光电影网

本站内容由用户自主分享和转载自互联网,转载目的在于传递更多信息,并不代表本网赞同其观点和对其真实性负责。

如有侵权、违反国家法律政策行为,请联系我们,我们会第一时间及时清除和处理!

举报反馈邮箱:[email protected]

快速回复 返回顶部 返回列表