找回密码

蓝光电影网

查看: 46|回复: 0

[剧情] 扫毒[国粤多音轨/简繁英字幕].The.White.Storm.2013.BluRay.1080p.x264.DTS-HD.MA.7.1.2Audio-MOMOHD 10.54GB

[复制链接]
蓝光币
7
发表于 2022-7-29 01:56:38 | 显示全部楼层 |阅读模式


◎标  题 扫毒
◎译  名 变役 / 政府者 / The White Storm
◎片  名 掃毒
◎年  代 2013
◎产  地 中国大陆 / 中国香港
◎类  别 剧情 / 行动 / 悬疑 / 犯罪
◎语  言 汉语普通话 / 粤语 / 泰语 / 英语
◎上映日期 2013-11-29(中国大陆) / 2013-12-05(中国香港)
◎IMDb评分 6.6/10 (2491人评价)
◎IMDb链接 https://www.imdb.com/title/tt2957774/
◎豆瓣评分 7.5/10 (237709人评价)
◎豆瓣链接 https://movie.douban.com/subject/10763164/
◎片  长 134分钟
◎导  演 陈木胜 Benny Chan
◎编  剧 陈木胜 Benny Chan
       文隽 Manfred Wong
       凌志民 Chi-man Ling
       黄进 Chun Wong
       谭惠贞 Wai-ching Tam
◎演  员 古天乐 Louis Koo
       张家辉 Nick Cheung
       刘青云 Sean Lau
       袁泉 Quan Yuan
       卢海鹏 Hoi-Pang Lo
       吴廷烨 Berg Ng
       林国斌 Ben Lam
       卢惠光 Ken Lo
       吴岱融 Hugo Ng Doi-Yung
       宝儿 Treechada Petcharat
       马浴柯 Marc Ma
       释彦能 Yanneng Shi
       罗兰 Lan Law
       李兆基 Siu-Kei Lee
       维他亚·潘斯林加姆 Vithaya Pansringarm
       罗钧满 Ronald Law
       黄子恒 Hugo Wong
       黄竣锋 Jason Wong
       邱万城 Samuel Yau
       袁绮雯 Yee-Man Yuen
       张豫玥 Cheung Yu-Yuet
        Jamie
       陈振华 Ricky Chan
       周祉君 Aaron Chow
       王文駿 Man-Chun Wong
◎标  签 香港电影 / 张家辉 / 犯罪 / 古天乐 / 香港 / 刘青云 / 行动 / 警匪
◎简  介
    从小一路长大的好兄弟马昊天(刘青云 饰)、张子伟(张家辉 饰)和 苏建秋(古天乐 饰)配合效力于警队扫毒科。在一次姑且改变计划的行动后,建秋由于卧底身份不能与妻子(袁泉 饰)过一般生活而心生退意,但在阿天与子伟的劝说下,三人决议停止最初一搏。建秋随着毒贩老迈黑柴(林国斌 饰)前往泰国与毒贩Bobby(卢惠光 饰)停止对接,目标是见到行动的最大方针“八面佛”(卢海鹏 饰),阿天则和子伟以及同事阿益(吴廷烨 饰)停止跟进。由于泰国警方的配合不力致使建秋身份表露,虽然建秋答应阿天继续把买卖完成,但失利的导火索已经埋下。买卖当天警方几近三军淹没,危机之时阿天挟持了八面佛的女儿缅娜(宝儿 饰)预备逃命,八面佛许诺只要还回缅娜阿天可以带走建秋和子伟中的一个,没被选中的则要被推动鳄鱼池,面临决定阿天及进退失据……
  1. ##### MediaInfo ######
  2. General
  3. Unique ID                                : 229427763299924799988897766069844065528 (0xAC9A2E10A23ED68D8EC6A86693C43CF8)
  4. Complete name                            : The.White.Storm.2013.BluRay.1080p.x264.DTS-HD.MA.7.1.2Audio-MOMOHD.mkv
  5. Format                                   : Matroska
  6. Format version                           : Version 4
  7. File size                                : 10.5 GiB
  8. Duration                                 : 2 h 14 min
  9. Overall bit rate mode                    : Variable
  10. Overall bit rate                         : 11.2 Mb/s
  11. Encoded date                             : UTC 2019-02-22 15:59:01
  12. Writing application                      : mkvmerge v31.0.0 ('Dolores In A Shoestand') 64-bit
  13. Writing library                          : libebml v1.3.6 + libmatroska v1.4.9
  14. Video
  15. ID                                       : 1
  16. Format                                   : AVC
  17. Format/Info                              : Advanced Video Codec
  18. Format profile                           : [email protected]
  19. Format settings                          : CABAC / 5 Ref Frames
  20. Format settings, CABAC                   : Yes
  21. Format settings, Reference frames        : 5 frames
  22. Codec ID                                 : V_MPEG4/ISO/AVC
  23. Duration                                 : 2 h 14 min
  24. Bit rate                                 : 8 102 kb/s
  25. Width                                    : 1 920 pixels
  26. Height                                   : 816 pixels
  27. Display aspect ratio                     : 2.35:1
  28. Frame rate mode                          : Constant
  29. Frame rate                               : 24.000 FPS
  30. Color space                              : YUV
  31. Chroma subsampling                       : 4:2:0
  32. Bit depth                                : 8 bits
  33. Scan type                                : Progressive
  34. Bits/(Pixel*Frame)                       : 0.215
  35. Stream size                              : 7.60 GiB (72%)
  36. Title                                    : [email protected]
  37. Writing library                          : x264 core 148 r2692+46 0f71ed5 7mod [[email protected] X86_64]
  38. Encoding settings                        : cabac=1 / ref=5 / deblock=1:-3:-3 / analyse=0x3:0x113 / me=umh / subme=11 / psy=1 / fade_compensate=0.00 / psy_rd=1.00:0.00 / mixed_ref=1 / me_range=48 / chroma_me=1 / trellis=2 / 8x8dct=1 / cqm=0 / deadzone=11,6 / fast_pskip=0 / chroma_qp_offset=-2 / threads=24 / lookahead_threads=4 / sliced_threads=0 / nr=0 / decimate=0 / interlaced=0 / NTM4NzU= / bluray_compat=0 / constrained_intra=0 / fgo=0 / bframes=8 / b_pyramid=2 / b_adapt=2 / b_bias=0 / direct=3 / weightb=1 / open_gop=0 / weightp=2 / keyint=250 / keyint_min=24 / NTM4NzU=uuDQuD2mJt9fsCf / scenecut=40 / intra_refresh=0 / rc_lookahead=60 / rc=crf / mbtree=0 / crf=19.0000 / qcomp=0.60 / qpmin=0:0:0 / qpmax=32:32:32 / qpstep=4 / vbv_maxrate=40000 / vbv_bufsize=30000 / crf_max=0.0 / nal_hrd=none / filler=0 / NTM4NzU=LmsMAP37EqsCpk / ip_ratio=1.30 / pb_ratio=1.20 / aq=4:0.80 / aq-sensitivity=10.00 / aq-factor=1.00:1.00:1.00 / aq2=0 / aq3=0
  39. Language                                 : Chinese
  40. Default                                  : Yes
  41. Forced                                   : No
  42. Color range                              : Limited
  43. Color primaries                          : BT.709
  44. Transfer characteristics                 : BT.709
  45. Matrix coefficients                      : BT.709
  46. Audio #1
  47. ID                                       : 2
  48. Format                                   : DTS XLL
  49. Format/Info                              : Digital Theater Systems
  50. Commercial name                          : DTS-HD Master Audio
  51. Codec ID                                 : A_DTS
  52. Duration                                 : 2 h 14 min
  53. Bit rate mode                            : Variable
  54. Bit rate                                 : 2 648 kb/s
  55. Channel(s)                               : 8 channels
  56. Channel layout                           : C L R Ls Rs LFE Lb Rb
  57. Sampling rate                            : 48.0 kHz
  58. Frame rate                               : 93.750 FPS (512 SPF)
  59. Bit depth                                : 16 bits
  60. Compression mode                         : Lossless
  61. Stream size                              : 2.48 GiB (24%)
  62. Title                                    : 粤语
  63. Language                                 : Chinese
  64. Default                                  : Yes
  65. Forced                                   : No
  66. Audio #2
  67. ID                                       : 3
  68. Format                                   : AC-3
  69. Format/Info                              : Audio Coding 3
  70. Commercial name                          : Dolby Digital
  71. Codec ID                                 : A_AC3
  72. Duration                                 : 2 h 14 min
  73. Bit rate mode                            : Constant
  74. Bit rate                                 : 448 kb/s
  75. Channel(s)                               : 6 channels
  76. Channel layout                           : L R C LFE Ls Rs
  77. Sampling rate                            : 48.0 kHz
  78. Frame rate                               : 31.250 FPS (1536 SPF)
  79. Compression mode                         : Lossy
  80. Stream size                              : 430 MiB (4%)
  81. Title                                    : 国语
  82. Language                                 : Chinese
  83. Service kind                             : Complete Main
  84. Default                                  : No
  85. Forced                                   : No
  86. Text #1
  87. ID                                       : 4
  88. Format                                   : PGS
  89. Muxing mode                              : zlib
  90. Codec ID                                 : S_HDMV/PGS
  91. Codec ID/Info                            : Picture based subtitle format used on BDs/HD-DVDs
  92. Duration                                 : 2 h 8 min
  93. Bit rate                                 : 32.3 kb/s
  94. Count of elements                        : 2625
  95. Stream size                              : 29.6 MiB (0%)
  96. Title                                    : 简中
  97. Language                                 : Chinese
  98. Default                                  : Yes
  99. Forced                                   : No
  100. Text #2
  101. ID                                       : 5
  102. Format                                   : PGS
  103. Muxing mode                              : zlib
  104. Codec ID                                 : S_HDMV/PGS
  105. Codec ID/Info                            : Picture based subtitle format used on BDs/HD-DVDs
  106. Duration                                 : 2 h 8 min
  107. Bit rate                                 : 33.5 kb/s
  108. Count of elements                        : 2625
  109. Stream size                              : 30.8 MiB (0%)
  110. Title                                    : 繁中
  111. Language                                 : Chinese
  112. Default                                  : No
  113. Forced                                   : No
  114. Text #3
  115. ID                                       : 6
  116. Format                                   : PGS
  117. Muxing mode                              : zlib
  118. Codec ID                                 : S_HDMV/PGS
  119. Codec ID/Info                            : Picture based subtitle format used on BDs/HD-DVDs
  120. Duration                                 : 2 h 8 min
  121. Bit rate                                 : 29.6 kb/s
  122. Count of elements                        : 2625
  123. Stream size                              : 27.2 MiB (0%)
  124. Title                                    : 英文
  125. Language                                 : English
  126. Default                                  : No
  127. Forced                                   : No
  128. Menu
  129. 00:00:00.000                             : :绗?01 绔?
  130. 00:11:50.208                             : :绗?02 绔?
  131. 00:20:47.542                             : :绗?03 绔?
  132. 00:32:32.625                             : :绗?04 绔?
  133. 00:41:05.000                             : :绗?05 绔?
  134. 00:55:11.042                             : :绗?06 绔?
  135. 01:05:40.792                             : :绗?07 绔?
  136. 01:16:10.583                             : :绗?08 绔?
  137. 01:26:51.292                             : :绗?09 绔?
  138. 01:36:30.292                             : :绗?10 绔?
  139. 01:46:42.708                             : :绗?11 绔?
  140. 02:00:50.458                             : :绗?12 绔?
复制代码

















保举请利用qBittorrent,utorrent,transmission等标准BT软件下载!以获得最快速度。奉求保种!





回复

使用道具 举报

懒得打字嘛,点击右侧快捷回复 【右侧内容,后台自定义】
您需要登录后才可以回帖 登录 | 立即加入

本版积分规则

Archiver|小黑屋| 蓝光电影网 |网站地图

Copyright © 2021 Comsenz Inc. Powered by 蓝光电影网

蓝光电影网

本站内容由用户自主分享和转载自互联网,转载目的在于传递更多信息,并不代表本网赞同其观点和对其真实性负责。

如有侵权、违反国家法律政策行为,请联系我们,我们会第一时间及时清除和处理!

举报反馈邮箱:[email protected]

快速回复 返回顶部 返回列表