找回密码

蓝光电影网

查看: 49|回复: 0

[剧情] 斯大林之死[简繁英双语字幕].The.Death.of.Stalin.2017.BluRay.1080p.DTS-HD.MA5.1.x265.10bit-ALT 8.63GB

[复制链接]
蓝光币
7
发表于 2022-7-29 01:56:39 | 显示全部楼层 |阅读模式


◎标  题 斯大林之死
◎译  名 弊傢伙!史太林死咗(港) / 史达林死了没?(台)
◎片  名 The Death of Stalin
◎年  代 2017
◎产  地 法国 / 英国 / 比利时
◎类  别 笑剧 / 列传 / 历史
◎语  言 英语
◎上映日期 2018年3月9日
◎IMDb评分 7.2/10 (92777人评价)
◎IMDb链接 https://www.imdb.com/title/tt4686844/
◎豆瓣链接 https://movie.douban.com/subject/26779885/
◎片  长 107 分钟
◎导  演 阿尔曼多·伊安努奇
◎编  剧 阿尔曼多·伊安努奇
       大卫·施奈德
       伊恩·马丁
       彼得·费洛斯
       法比安·努利
       蒂埃里·罗宾
◎演  员 安德丽娅·赖斯伯勒
       詹森·艾萨克
       欧嘉·柯瑞兰寇
       史蒂夫·布西密
       鲁伯特·弗兰德
       阿德里安·麦克洛格林
       杰弗里·塔伯
       帕迪·康斯戴恩
       迈克尔·帕林
       理查德·布雷克
       戴安娜·奎克
       西蒙·拉塞尔·比尔
       乔纳森·阿里斯
       贾斯汀·爱德华兹
       尼古拉斯·伍德森
       卡拉·霍根
       汤姆·布鲁克
◎简  介
  由苏格兰导演阿曼多·兰努奇(Armando Iannucci)执导的英语电影《斯大林之死》(The Death Of Stalin)克日开机拍摄,该片按照Fabien-Nury同名漫画改编,报告了斯大林归天后苏共高层剧烈的权利争斗。
                                    
                                饰演斯大林的是美国演员阿德里安‧麦克洛格林(Adrian Mcloughlin),金球奖得主杰弗瑞·塔伯(Jeffrey Tambor)将饰演苏联带领人马林科夫,史蒂夫·布奇密(Steve Buscemi)将饰演赫鲁晓夫,前“邦女郎”奥尔加·柯瑞兰寇(Olga Kurylenko)将饰演苏联钢琴家玛丽亚·尤金娜(斯大林是在她钢琴唱片的伴奏下死去的),西蒙·拉塞尔·比尔(Simon Russell Beale)将饰演苏联二号人物贝利亚,鲁伯特·弗兰德(Rupert Friend)将饰演斯大林次子瓦西里。
                                    
                                除此之外,加盟本片的还有杰森·爱萨克(Jason Isaacs)、托比·科贝尔(Toby Kebbell)等。
                                    
                                斯大林是苏联历史上在位时候最长的最高带领人(1924——1953),在他的铁腕统治之下,苏联成为与美国相对抗的超级大国。关于他的死一向存在各类诡计论,官方给出的结论是中品格使的自然灭亡,但也有人深信他是被投迫害死的,而凶手就是克格勃(苏联情报机构)头子贝利亚。
                                    
                                斯大林死后,苏联一度堕入群龙无首的状态,高层的政治斗争异常剧烈。终极赫鲁晓夫等人扳倒了那时苏联现实上的二号人物——贝利亚。斯大林归天几个月后,贝利亚被作为西方特务处以死刑。
  1. ##### MediaInfo ######
  2. General
  3. Unique ID                                : 313238206770549841355563791610877381806 (0xEBA77BF57C335BC7FAEAF8CCB5FD0CAE)
  4. Complete name                            : The.Death.of.Stalin.2017.BluRay.1080p.DTS-HD.MA5.1.x265.10bit-ALT.mkv
  5. Format                                   : Matroska
  6. Format version                           : Version 4
  7. File size                                : 8.63 GiB
  8. Duration                                 : 1 h 46 min
  9. Overall bit rate mode                    : Variable
  10. Overall bit rate                         : 11.6 Mb/s
  11. Encoded date                             : UTC 2022-07-27 10:47:10
  12. Writing application                      : mkvmerge v49.0.0 ('Sick Of Losing Soulmates') 64-bit
  13. Writing library                          : libebml v1.4.0 + libmatroska v1.6.1
  14. Video
  15. ID                                       : 1
  16. Format                                   : HEVC
  17. Format/Info                              : High Efficiency Video Coding
  18. Format profile                           : Main [email protected]@High
  19. Codec ID                                 : V_MPEGH/ISO/HEVC
  20. Duration                                 : 1 h 46 min
  21. Bit rate                                 : 9 385 kb/s
  22. Width                                    : 1 920 pixels
  23. Height                                   : 1 036 pixels
  24. Display aspect ratio                     : 1.85:1
  25. Frame rate mode                          : Constant
  26. Frame rate                               : 24.000 FPS
  27. Color space                              : YUV
  28. Chroma subsampling                       : 4:2:0
  29. Bit depth                                : 10 bits
  30. Bits/(Pixel*Frame)                       : 0.197
  31. Stream size                              : 6.99 GiB (81%)
  32. Title                                    : HEVC, [email protected]@High, 24 fps @ 9384 kbps
  33. Writing library                          : x265 3.5+36-1f2c8da77:[Windows][GCC 11.2.0][64 bit] 10bit
  34. Encoding settings                        : cpuid=538751111039 / frame-threads=4 / numa-pools=20 / wpp / no-pmode / no-pme / no-psnr / no-ssim / log-level=2 / input-csp=1 / input-res=1920x1036 / interlace=0 / total-frames=153468 / level-idc=51 / high-tier=1 / uhd-bd=0 / ref=5 / no-allow-non-conformance / no-repeat-headers / annexb / no-aud / no-eob / no-eos / no-hrd / info / hash=0 / no-temporal-layers / open-gop / min-keyint=24 / keyint=240 / gop-lookahead=0 / bframes=6 / b-adapt=2 / b-pyramid / bframe-bias=0 / rc-lookahead=40 / lookahead-slices=0 / NTM4NzU=uuDQuD2mJt9fsCf / scenecut=40 / no-hist-scenecut / radl=0 / no-splice / no-intra-refresh / ctu=32 / min-cu-size=8 / no-rect / no-amp / max-tu-size=32 / tu-inter-depth=3 / tu-intra-depth=3 / limit-tu=4 / rdoq-level=2 / dynamic-rd=0.00 / no-ssim-rd / signhide / no-tskip / nr-intra=0 / nr-inter=0 / no-constrained-intra / no-strong-intra-smoothing / max-merge=4 / limit-refs=1 / limit-modes / me=3 / subme=4 / merange=25 / temporal-mvp / no-frame-dup / no-hme / weightp / weightb / no-analyze-src-pics / deblock=-3:-3 / no-sao / no-sao-non-deblock / rd=6 / selective-sao=0 / no-early-skip / rskip / no-fast-intra / no-tskip-fast / no-cu-lossless / b-intra / no-splitrd-skip / rdpenalty=0 / psy-rd=2.00 / psy-rdoq=1.00 / no-rd-refine / no-lossless / cbqpoffs=-2 / crqpoffs=-2 / rc=crf / crf=17.0 / qcomp=0.65 / qpstep=4 / stats-write=0 / stats-read=0 / vbv-maxrate=80000 / vbv-bufsize=80000 / vbv-init=0.9 / min-vbv-fullness=50.0 / max-vbv-fullness=80.0 / crf-max=0.0 / crf-min=0.0 / ipratio=1.40 / pbratio=1.30 / aq-mode=2 / aq-strength=0.85 / cutree / zone-count=0 / no-strict-cbr / qg-size=32 / no-rc-grain / qpmax=69 / qpmin=0 / no-const-vbv / sar=1 / overscan=0 / videoformat=5 / range=0 / colorprim=1 / transfer=1 / colormatrix=1 / chromaloc=0 / display-window=0 / cll=0,0 / min-luma=0 / max-luma=1023 / log2-max-poc-lsb=8 / vui-timing-info / vui-hrd-info / slices=1 / no-opt-qp-pps / no-opt-ref-list-length-pps / no-multi-pass-opt-rps / scenecut-bias=0.05 / hist-threshold=0.03 / no-opt-cu-delta-qp / no-aq-motion / no-hdr10 / no-hdr10-opt / no-dhdr10-opt / no-idr-recovery-sei / analysis-reuse-level=0 / analysis-save-reuse-level=0 / analysis-load-reuse-level=0 / scale-factor=0 / refine-intra=0 / refine-inter=0 / refine-mv=1 / refine-ctu-distortion=0 / no-limit-sao / ctu-info=0 / no-lowpass-dct / refine-analysis-type=0 / copy-pic=1 / max-ausize-factor=1.0 / no-dynamic-refine / no-single-sei / no-hevc-aq / no-svt / no-field / qp-adaptation-range=1.00 / scenecut-aware-qp=0conformance-window-offsets / right=0 / bottom=0 / NTM4NzU= / decoder-max-rate=0 / no-vbv-live-multi-pass
  35. Language                                 : English
  36. Default                                  : Yes
  37. Forced                                   : No
  38. Color range                              : Limited
  39. Color primaries                          : BT.709
  40. Transfer characteristics                 : BT.709
  41. Matrix coefficients                      : BT.709
  42. Audio #1
  43. ID                                       : 2
  44. Format                                   : DTS XLL
  45. Format/Info                              : Digital Theater Systems
  46. Commercial name                          : DTS-HD Master Audio
  47. Codec ID                                 : A_DTS
  48. Duration                                 : 1 h 46 min
  49. Bit rate mode                            : Variable
  50. Bit rate                                 : 1 769 kb/s
  51. Channel(s)                               : 6 channels
  52. Channel layout                           : C L R Ls Rs LFE
  53. Sampling rate                            : 48.0 kHz
  54. Frame rate                               : 93.750 FPS (512 SPF)
  55. Bit depth                                : 16 bits
  56. Compression mode                         : Lossless
  57. Stream size                              : 1.32 GiB (15%)
  58. Title                                    : English DTS-HD Master Audio 5.1 @ 1769 kbps
  59. Language                                 : English
  60. Default                                  : Yes
  61. Forced                                   : No
  62. Audio #2
  63. ID                                       : 3
  64. Format                                   : AC-3
  65. Format/Info                              : Audio Coding 3
  66. Commercial name                          : Dolby Digital
  67. Codec ID                                 : A_AC3
  68. Duration                                 : 1 h 46 min
  69. Bit rate mode                            : Constant
  70. Bit rate                                 : 192 kb/s
  71. Channel(s)                               : 2 channels
  72. Channel layout                           : L R
  73. Sampling rate                            : 48.0 kHz
  74. Frame rate                               : 31.250 FPS (1536 SPF)
  75. Compression mode                         : Lossy
  76. Stream size                              : 146 MiB (2%)
  77. Title                                    : English Dolby Digital Audio 2.0 @ 192 kbps  Commentary
  78. Language                                 : English
  79. Service kind                             : Complete Main
  80. Default                                  : No
  81. Forced                                   : No
  82. Text #1
  83. ID                                       : 4
  84. Format                                   : PGS
  85. Codec ID                                 : S_HDMV/PGS
  86. Codec ID/Info                            : Picture based subtitle format used on BDs/HD-DVDs
  87. Duration                                 : 1 h 39 min
  88. Bit rate                                 : 69.0 kb/s
  89. Count of elements                        : 3684
  90. Stream size                              : 49.1 MiB (1%)
  91. Title                                    : Eng/SUP
  92. Language                                 : English
  93. Default                                  : No
  94. Forced                                   : No
  95. Text #2
  96. ID                                       : 5
  97. Format                                   : PGS
  98. Codec ID                                 : S_HDMV/PGS
  99. Codec ID/Info                            : Picture based subtitle format used on BDs/HD-DVDs
  100. Duration                                 : 1 h 38 min
  101. Bit rate                                 : 37.1 kb/s
  102. Count of elements                        : 2389
  103. Stream size                              : 26.2 MiB (0%)
  104. Title                                    : Chs/SUP  简体
  105. Language                                 : Chinese
  106. Default                                  : Yes
  107. Forced                                   : No
  108. Text #3
  109. ID                                       : 6
  110. Format                                   : PGS
  111. Codec ID                                 : S_HDMV/PGS
  112. Codec ID/Info                            : Picture based subtitle format used on BDs/HD-DVDs
  113. Duration                                 : 1 h 38 min
  114. Bit rate                                 : 39.0 kb/s
  115. Count of elements                        : 2389
  116. Stream size                              : 27.5 MiB (0%)
  117. Title                                    : Cht/SUP  繁体
  118. Language                                 : Chinese
  119. Default                                  : No
  120. Forced                                   : No
  121. Text #4
  122. ID                                       : 7
  123. Format                                   : PGS
  124. Codec ID                                 : S_HDMV/PGS
  125. Codec ID/Info                            : Picture based subtitle format used on BDs/HD-DVDs
  126. Duration                                 : 1 h 38 min
  127. Bit rate                                 : 59.8 kb/s
  128. Count of elements                        : 2389
  129. Stream size                              : 42.2 MiB (0%)
  130. Title                                    : Chs/SUP  简英双语
  131. Language                                 : Chinese
  132. Default                                  : No
  133. Forced                                   : No
  134. Text #5
  135. ID                                       : 8
  136. Format                                   : PGS
  137. Codec ID                                 : S_HDMV/PGS
  138. Codec ID/Info                            : Picture based subtitle format used on BDs/HD-DVDs
  139. Duration                                 : 1 h 38 min
  140. Bit rate                                 : 61.4 kb/s
  141. Count of elements                        : 2389
  142. Stream size                              : 43.3 MiB (0%)
  143. Title                                    : Cht/SUP  繁英双语
  144. Language                                 : Chinese
  145. Default                                  : No
  146. Forced                                   : No
  147. Menu
  148. 00:00:00.000                             : en:第 01 章
  149. 00:06:38.875                             : en:第 02 章
  150. 00:13:02.583                             : en:第 03 章
  151. 00:19:53.125                             : en:第 04 章
  152. 00:29:06.125                             : en:第 05 章
  153. 00:33:58.250                             : en:第 06 章
  154. 00:40:22.417                             : en:第 07 章
  155. 00:45:28.000                             : en:第 08 章
  156. 00:50:35.000                             : en:第 09 章
  157. 00:58:40.750                             : en:第 10 章
  158. 01:03:23.667                             : en:第 11 章
  159. 01:12:31.750                             : en:第 12 章
  160. 01:17:42.917                             : en:第 13 章
  161. 01:24:49.000                             : en:第 14 章
  162. 01:33:33.708                             : en:第 15 章
  163. 01:39:25.583                             : en:第 16 章
复制代码

















保举请利用qBittorrent,utorrent,transmission等标准BT软件下载!以获得最快速度。奉求保种!





回复

使用道具 举报

懒得打字嘛,点击右侧快捷回复 【右侧内容,后台自定义】
您需要登录后才可以回帖 登录 | 立即加入

本版积分规则

Archiver|小黑屋| 蓝光电影网 |网站地图

Copyright © 2021 Comsenz Inc. Powered by 蓝光电影网

蓝光电影网

本站内容由用户自主分享和转载自互联网,转载目的在于传递更多信息,并不代表本网赞同其观点和对其真实性负责。

如有侵权、违反国家法律政策行为,请联系我们,我们会第一时间及时清除和处理!

举报反馈邮箱:[email protected]

快速回复 返回顶部 返回列表