找回密码

蓝光电影网

查看: 38|回复: 0

[剧情] 预见未来[简繁英字幕].Next.2007.1080p.BluRay.DD5.1.x265-10bit-BATHD 5.39GB

[复制链接]
蓝光币
7
发表于 2022-7-29 01:56:43 | 显示全部楼层 |阅读模式


◎标  题 预见未来
◎译  名 惊魂下一秒 / 关键下一秒 / 天眼救未来 / 先知先觉
◎片  名 Next
◎年  代 2007
◎产  地 美国
◎类  别 行动 / 科幻 / 惊悚 / 犯罪
◎语  言 英语 / 法语 / 德语 / 塞尔维亚语
◎上映日期 2007-04-27(美国)
◎IMDb评分 6.2/10 (157309人评价)
◎IMDb链接 https://www.imdb.com/title/tt0435705/
◎豆瓣评分 7.2/10 (95199人评价)
◎豆瓣链接 https://movie.douban.com/subject/1793909/
◎片  长 96 分钟
◎导  演 李·塔玛霍瑞 Lee Tamahori
◎编  剧 加里·戈德曼 Gary Goldman
       乔纳森·汉斯雷 Jonathan Hensleigh
       菲利普·迪克 Philip K. Dick
       保罗·伯恩纳姆 Paul Bernbaum
◎演  员 尼古拉斯·凯奇 Nicolas Cage
       朱丽安·摩尔 Julianne Moore
       杰西卡·贝尔 Jessica Biel
       托马斯·克莱舒曼 Thomas Kretschmann
       托利·基特尔斯 Tory Kittles
       何塞·祖尼加 José Zúñiga
       吉姆·比弗 Jim Beaver
       杰森·巴特勒·哈纳 Jason Butler Harner
       迈克尔·特鲁科 Michael Trucco
       恩佐·科伦蒂 Enzo Cilenti
       谢尔盖·特里富诺维奇 Sergej Trifunović
       查尔斯·拉西·陈 Charles Rahi Chun
       杰西卡·巴斯 Jessica Barth
       博妮塔·弗里德里西 Bonita Friedericy
       彼得·法尔克 Peter Falk
       亚当·列贝曼 Adam Lieberman
       米兰达·弗利贡 Miranda Frigon
       保罗·瑞 Paul Rae
       克里斯巴勒莫 Chris Palermo
       帕特里夏·普拉塔 Patricia Prata
       迈克尔·鲍道 Michael Runyard
       丽莎·乔伊纳 Lisa Joyner
       尼古拉斯·凯奇 Nicolas Cage
       加里·戈德曼 Gary Goldman
       David Tattersall David Tattersall
       克里斯蒂安·瓦格纳 Christian Wagner
       丹尼斯·查米恩 Denise Chamian
       马克·W·曼斯布里奇 Mark W. Mansbridge
       威廉·桑德尔 William Sandell
       Kevin Ishioka Kevin Ishioka
       罗伯特·古尔德 Robert Gould
       帕蒂·约克 Patty York
       伊丽莎·玛什 Elisa Marsh
       Beth Miller Beth Miller
       艾兰·丹格里奥 Alan D'Angerio
       维尔威特·安德鲁斯-史姑娘 Velvet Andrews-Smith
       乔什·莫索蒂 Josh Mossotti
       迪昂·哈奇 Dion Hatch
       Anthony 'Max' Ivins Anthony 'Max' Ivins
       雷·麦金太尔 Ray McIntyre Jr.
       John E. Sullivan John E. Sullivan
       朗·西蒙森 Ron Simonson
       David Sosalla David Sosalla
       吉姆·戈尔曼 Jim Gorman
◎简  介
  虽然很多人感觉具有超才能是一件好事,但究竟却恰恰和设想中相反。克里斯(尼古拉斯•凯奇 Nicolas Cage 饰)天生具有猜测未来的才能,但他从小就在疾苦中度过:各类机构、政府、医院都对他极感爱好,以致他欢畅的童年都在测试和研讨中度过。成年后的克里斯隐形埋名混迹于赌城拉斯维加斯,不时去赌博一下赢点小钱。                                    
                                由于一个可骇构造预谋要炸毁洛杉矶,奸细凯莉(朱丽安•摩尔 Julianne Moore 饰)找到了克里斯帮手。但是,这猜测未来的超才能现在令克里斯疾苦万分,由于他猜测到不管何等尽力,洛杉矶终极还是会被炸毁,而且他的爱人也会在此灾难中死去……
  1. ##### MediaInfo ######
  2. General
  3. Unique ID                                : 267746309566117557510512771971092263606 (0xC96E10422481B1D92F8D58A7B41332B6)
  4. Complete name                            : Next.2007.1080p.BluRay.DD5.1.x265-10bit-BATHD.mkv
  5. Format                                   : Matroska
  6. Format version                           : Version 4
  7. File size                                : 5.39 GiB
  8. Duration                                 : 1 h 36 min
  9. Overall bit rate                         : 8 022 kb/s
  10. Movie name                               : Next 2007 1080p BluRay DD5.1 x265-10bit-HDS
  11. Encoded date                             : UTC 2022-07-27 03:15:22
  12. Writing application                      : mkvmerge v67.0.0 ('Under Stars') 64-bit
  13. Writing library                          : libebml v1.4.2 + libmatroska v1.6.4
  14. Video
  15. ID                                       : 1
  16. Format                                   : HEVC
  17. Format/Info                              : High Efficiency Video Coding
  18. Format profile                           : Main [email protected]@High
  19. Codec ID                                 : V_MPEGH/ISO/HEVC
  20. Duration                                 : 1 h 36 min
  21. Bit rate                                 : 7 350 kb/s
  22. Width                                    : 1 920 pixels
  23. Height                                   : 796 pixels
  24. Display aspect ratio                     : 2.40:1
  25. Frame rate mode                          : Constant
  26. Frame rate                               : 23.976 (24000/1001/53875) FPS
  27. Color space                              : YUV
  28. Chroma subsampling                       : 4:2:0
  29. Bit depth                                : 10 bits
  30. Bits/(Pixel*Frame)                       : 0.201
  31. Stream size                              : 4.94 GiB (92%)
  32. Title                                    : [email protected]
  33. Writing library                          : x265 - H.265/HEVC codec
  34. Default                                  : Yes
  35. Forced                                   : No
  36. Audio
  37. ID                                       : 2
  38. Format                                   : AC-3
  39. Format/Info                              : Audio Coding 3
  40. Commercial name                          : Dolby Digital
  41. Codec ID                                 : A_AC3
  42. Duration                                 : 1 h 36 min
  43. Bit rate mode                            : Constant
  44. Bit rate                                 : 640 kb/s
  45. Channel(s)                               : 6 channels
  46. Channel layout                           : L R C LFE Ls Rs
  47. Sampling rate                            : 48.0 kHz
  48. Frame rate                               : 31.250 FPS (1536 SPF)
  49. Compression mode                         : Lossy
  50. Stream size                              : 440 MiB (8%)
  51. Title                                    : English
  52. Language                                 : English
  53. Service kind                             : Complete Main
  54. Default                                  : Yes
  55. Forced                                   : No
  56. Text #1
  57. ID                                       : 3
  58. Format                                   : PGS
  59. Muxing mode                              : zlib
  60. Codec ID                                 : S_HDMV/PGS
  61. Codec ID/Info                            : Picture based subtitle format used on BDs/HD-DVDs
  62. Duration                                 : 1 h 29 min
  63. Bit rate                                 : 20.3 kb/s
  64. Count of elements                        : 1956
  65. Stream size                              : 13.0 MiB (0%)
  66. Title                                    : CHS
  67. Language                                 : Chinese
  68. Default                                  : Yes
  69. Forced                                   : No
  70. Text #2
  71. ID                                       : 4
  72. Format                                   : PGS
  73. Muxing mode                              : zlib
  74. Codec ID                                 : S_HDMV/PGS
  75. Codec ID/Info                            : Picture based subtitle format used on BDs/HD-DVDs
  76. Duration                                 : 1 h 29 min
  77. Bit rate                                 : 20.7 kb/s
  78. Count of elements                        : 1956
  79. Stream size                              : 13.3 MiB (0%)
  80. Title                                    : CHT
  81. Language                                 : Chinese
  82. Default                                  : Yes
  83. Forced                                   : No
  84. Text #3
  85. ID                                       : 5
  86. Format                                   : PGS
  87. Muxing mode                              : zlib
  88. Codec ID                                 : S_HDMV/PGS
  89. Codec ID/Info                            : Picture based subtitle format used on BDs/HD-DVDs
  90. Duration                                 : 1 h 26 min
  91. Bit rate                                 : 33.4 kb/s
  92. Count of elements                        : 1964
  93. Stream size                              : 20.8 MiB (0%)
  94. Title                                    : ENG
  95. Language                                 : English
  96. Default                                  : Yes
  97. Forced                                   : No
  98. Menu
  99. 00:00:00.000                             : en:第 01 章
  100. 00:02:28.774                             : en:第 02 章
  101. 00:10:06.314                             : en:第 03 章
  102. 00:11:45.955                             : en:第 04 章
  103. 00:16:14.974                             : en:第 05 章
  104. 00:20:14.422                             : en:第 06 章
  105. 00:21:02.678                             : en:第 07 章
  106. 00:27:54.882                             : en:第 08 章
  107. 00:30:17.524                             : en:第 09 章
  108. 00:36:18.635                             : en:第 10 章
  109. 00:42:12.613                             : en:第 11 章
  110. 00:48:20.773                             : en:第 12 章
  111. 00:56:10.617                             : en:第 13 章
  112. 01:02:01.092                             : en:第 14 章
  113. 01:11:04.927                             : en:第 15 章
  114. 01:19:16.877                             : en:第 16 章
  115. 01:26:07.079                             : en:第 17 章
  116. 01:30:36.681                             : en:第 18 章
复制代码

















保举请利用qBittorrent,utorrent,transmission等标准BT软件下载!以获得最快速度。奉求保种!





回复

使用道具 举报

懒得打字嘛,点击右侧快捷回复 【右侧内容,后台自定义】
您需要登录后才可以回帖 登录 | 立即加入

本版积分规则

Archiver|小黑屋| 蓝光电影网 |网站地图

Copyright © 2021 Comsenz Inc. Powered by 蓝光电影网

蓝光电影网

本站内容由用户自主分享和转载自互联网,转载目的在于传递更多信息,并不代表本网赞同其观点和对其真实性负责。

如有侵权、违反国家法律政策行为,请联系我们,我们会第一时间及时清除和处理!

举报反馈邮箱:[email protected]

快速回复 返回顶部 返回列表