找回密码

蓝光电影网

查看: 129|回复: 0

[剧情] 天涯海角[国粤英多音轨/简繁英字幕].Lost.and.Found.1996.BluRay.1080p.2Audio.DTS-HD.MA.2.0.x265.10bit-ALT 9.30GB

[复制链接]
蓝光币
8
发表于 2022-7-29 01:56:45 | 显示全部楼层 |阅读模式


◎标  题 天涯天涯
◎译  名 Lost and Found
◎年  代 1996
◎产  地 中国香港
◎类  别 剧情 / 恋爱
◎语  言 粤语
◎上映日期 1996-10-18(中国香港)
◎IMDb评分 7.3/10 (470人评价)
◎IMDb链接 https://www.imdb.com/title/tt0117904/
◎豆瓣评分 8.0/10 (10350人评价)
◎豆瓣链接 https://movie.douban.com/subject/1307724/
◎片  长 109分钟
◎导  演 李志毅 Chi-ngai Lee
◎编  剧 李志毅 Chi-ngai Lee
◎演  员 金城武 Takeshi Kaneshiro
       陈慧琳 Kelly Chen
       王敏德 Michael Wong
       陈小春 Jordan Chan
       何超仪 Josie Ho
       陈豪 Moses Chan
       陈德森 Teddy Chan
       张达明 Tat-Ming Cheung
       玛利亚 Maria Cordero
       方平 Henry Fong
       徐濠萦 Hilary Tsui
       李晓彤 Tina Lee
       滕丽名 Joyce Tang
       李志毅 Chi-ngai Lee
       谢家慧 Doris Tse
       曾志伟 Eric Tsang
       邹文怀 Raymond Chow
       雷颂德 Mark Lui
       黄仲标 Bill Wong
       麦兆辉 Alan Mak
       关信辉 Adrian Kwan
       曾景祥 Kinson Tsang
◎简  介
  少女琳(陈慧琳)得了血癌,就在她丢失于生与死的边沿时,结识了成熟稳重的苏格兰船员阿德(王敏德),听过阿德所讲的关于他故乡天涯天涯的故事后,琳感遭到一份莫名的缘分,但是忽然间阿德消失,失落之际,琳碰到专门替人寻觅失物的阿虫(金城武),聘请下他寻觅阿德,经过阿虫的辛劳尽力,琳与阿德终又碰头,本来阿德预备回故乡假寓。                                    
                                阿德走后,琳和阿虫一路干事时获得一种从没有过的充实和欢畅,但是她的心里始终惦念着天涯天涯,并决议在生命竣事之前,一定要去那边一趟。
  1. ##### MediaInfo ######
  2. General
  3. Unique ID                                : 182751166597962271756135158314941679447 (0x897C982B6712D7B7C5233D61FF3A0757)
  4. Complete name                            : Lost.and.Found.1996.BluRay.1080p.2Audio.DTS-HD.MA.2.0.x265.10bit-ALT.mkv
  5. Format                                   : Matroska
  6. Format version                           : Version 4
  7. File size                                : 9.29 GiB
  8. Duration                                 : 1 h 48 min
  9. Overall bit rate mode                    : Variable
  10. Overall bit rate                         : 12.2 Mb/s
  11. Encoded date                             : UTC 2022-07-27 01:31:23
  12. Writing application                      : mkvmerge v49.0.0 ('Sick Of Losing Soulmates') 64-bit
  13. Writing library                          : libebml v1.4.0 + libmatroska v1.6.1
  14. Video
  15. ID                                       : 1
  16. Format                                   : HEVC
  17. Format/Info                              : High Efficiency Video Coding
  18. Format profile                           : Main [email protected]@High
  19. Codec ID                                 : V_MPEGH/ISO/HEVC
  20. Duration                                 : 1 h 48 min
  21. Bit rate                                 : 10.3 Mb/s
  22. Width                                    : 1 920 pixels
  23. Height                                   : 1 080 pixels
  24. Display aspect ratio                     : 16:9
  25. Frame rate mode                          : Constant
  26. Frame rate                               : 24.000 FPS
  27. Color space                              : YUV
  28. Chroma subsampling                       : 4:2:0
  29. Bit depth                                : 10 bits
  30. Bits/(Pixel*Frame)                       : 0.207
  31. Stream size                              : 7.85 GiB (84%)
  32. Title                                    : HEVC, [email protected]@High, 24 fps @ 10315 kbps
  33. Writing library                          : x265 3.5+36-1f2c8da77:[Windows][GCC 11.2.0][64 bit] 10bit
  34. Encoding settings                        : cpuid=538751111039 / frame-threads=4 / numa-pools=16 / wpp / no-pmode / no-pme / no-psnr / no-ssim / log-level=2 / input-csp=1 / input-res=1920x1080 / interlace=0 / total-frames=156905 / level-idc=51 / high-tier=1 / uhd-bd=0 / ref=5 / no-allow-non-conformance / no-repeat-headers / annexb / no-aud / no-eob / no-eos / no-hrd / info / hash=0 / no-temporal-layers / open-gop / min-keyint=24 / keyint=240 / gop-lookahead=0 / bframes=6 / b-adapt=2 / b-pyramid / bframe-bias=0 / rc-lookahead=40 / lookahead-slices=0 / NTM4NzU=uuDQuD2mJt9fsCf / scenecut=40 / no-hist-scenecut / radl=0 / no-splice / no-intra-refresh / ctu=32 / min-cu-size=8 / no-rect / no-amp / max-tu-size=32 / tu-inter-depth=3 / tu-intra-depth=3 / limit-tu=4 / rdoq-level=2 / dynamic-rd=0.00 / no-ssim-rd / signhide / no-tskip / nr-intra=0 / nr-inter=0 / no-constrained-intra / no-strong-intra-smoothing / max-merge=4 / limit-refs=1 / limit-modes / me=3 / subme=4 / merange=25 / temporal-mvp / no-frame-dup / no-hme / weightp / weightb / no-analyze-src-pics / deblock=-3:-3 / no-sao / no-sao-non-deblock / rd=6 / selective-sao=0 / no-early-skip / rskip / no-fast-intra / no-tskip-fast / no-cu-lossless / b-intra / no-splitrd-skip / rdpenalty=0 / psy-rd=2.00 / psy-rdoq=1.00 / no-rd-refine / no-lossless / cbqpoffs=-2 / crqpoffs=-2 / rc=crf / crf=18.5 / qcomp=0.65 / qpstep=4 / stats-write=0 / stats-read=0 / vbv-maxrate=80000 / vbv-bufsize=80000 / vbv-init=0.9 / min-vbv-fullness=50.0 / max-vbv-fullness=80.0 / crf-max=0.0 / crf-min=0.0 / ipratio=1.40 / pbratio=1.30 / aq-mode=2 / aq-strength=0.85 / cutree / zone-count=0 / no-strict-cbr / qg-size=32 / no-rc-grain / qpmax=69 / qpmin=0 / no-const-vbv / sar=1 / overscan=0 / videoformat=5 / range=0 / colorprim=1 / transfer=1 / colormatrix=1 / chromaloc=0 / display-window=0 / cll=0,0 / min-luma=0 / max-luma=1023 / log2-max-poc-lsb=8 / vui-timing-info / vui-hrd-info / slices=1 / no-opt-qp-pps / no-opt-ref-list-length-pps / no-multi-pass-opt-rps / scenecut-bias=0.05 / hist-threshold=0.03 / no-opt-cu-delta-qp / no-aq-motion / no-hdr10 / no-hdr10-opt / no-dhdr10-opt / no-idr-recovery-sei / analysis-reuse-level=0 / analysis-save-reuse-level=0 / analysis-load-reuse-level=0 / scale-factor=0 / refine-intra=0 / refine-inter=0 / refine-mv=1 / refine-ctu-distortion=0 / no-limit-sao / ctu-info=0 / no-lowpass-dct / refine-analysis-type=0 / copy-pic=1 / max-ausize-factor=1.0 / no-dynamic-refine / no-single-sei / no-hevc-aq / no-svt / no-field / qp-adaptation-range=1.00 / scenecut-aware-qp=0conformance-window-offsets / right=0 / bottom=0 / NTM4NzU= / decoder-max-rate=0 / no-vbv-live-multi-pass
  35. Language                                 : English
  36. Default                                  : Yes
  37. Forced                                   : No
  38. Color range                              : Limited
  39. Color primaries                          : BT.709
  40. Transfer characteristics                 : BT.709
  41. Matrix coefficients                      : BT.709
  42. Audio #1
  43. ID                                       : 2
  44. Format                                   : DTS XLL
  45. Format/Info                              : Digital Theater Systems
  46. Commercial name                          : DTS-HD Master Audio
  47. Codec ID                                 : A_DTS
  48. Duration                                 : 1 h 48 min
  49. Bit rate mode                            : Variable
  50. Bit rate                                 : 865 kb/s
  51. Channel(s)                               : 2 channels
  52. Channel layout                           : L R
  53. Sampling rate                            : 48.0 kHz
  54. Frame rate                               : 93.750 FPS (512 SPF)
  55. Bit depth                                : 16 bits
  56. Compression mode                         : Lossless
  57. Stream size                              : 674 MiB (7%)
  58. Title                                    : Cantonese DTS-HD Master Audio 2.0 @ 866 kbps
  59. Language                                 : Chinese
  60. Default                                  : Yes
  61. Forced                                   : No
  62. Audio #2
  63. ID                                       : 3
  64. Format                                   : DTS XLL
  65. Format/Info                              : Digital Theater Systems
  66. Commercial name                          : DTS-HD Master Audio
  67. Codec ID                                 : A_DTS
  68. Duration                                 : 1 h 48 min
  69. Bit rate mode                            : Variable
  70. Bit rate                                 : 939 kb/s
  71. Channel(s)                               : 2 channels
  72. Channel layout                           : L R
  73. Sampling rate                            : 48.0 kHz
  74. Frame rate                               : 93.750 FPS (512 SPF)
  75. Bit depth                                : 16 bits
  76. Compression mode                         : Lossless
  77. Stream size                              : 732 MiB (8%)
  78. Title                                    : Mandarin DTS-HD Master Audio 2.0 @ 940 kbps
  79. Language                                 : Chinese
  80. Default                                  : No
  81. Forced                                   : No
  82. Text #1
  83. ID                                       : 4
  84. Format                                   : PGS
  85. Codec ID                                 : S_HDMV/PGS
  86. Codec ID/Info                            : Picture based subtitle format used on BDs/HD-DVDs
  87. Duration                                 : 1 h 45 min
  88. Bit rate                                 : 31.6 kb/s
  89. Count of elements                        : 2327
  90. Stream size                              : 23.9 MiB (0%)
  91. Title                                    : Cht/SUP  原盘繁体
  92. Language                                 : Chinese
  93. Default                                  : No
  94. Forced                                   : No
  95. Text #2
  96. ID                                       : 5
  97. Format                                   : PGS
  98. Codec ID                                 : S_HDMV/PGS
  99. Codec ID/Info                            : Picture based subtitle format used on BDs/HD-DVDs
  100. Duration                                 : 1 h 45 min
  101. Bit rate                                 : 29.4 kb/s
  102. Count of elements                        : 2327
  103. Stream size                              : 22.2 MiB (0%)
  104. Title                                    : Chs/SUP  原盘简体
  105. Language                                 : Chinese
  106. Default                                  : Yes
  107. Forced                                   : No
  108. Text #3
  109. ID                                       : 6
  110. Format                                   : PGS
  111. Codec ID                                 : S_HDMV/PGS
  112. Codec ID/Info                            : Picture based subtitle format used on BDs/HD-DVDs
  113. Duration                                 : 1 h 45 min
  114. Bit rate                                 : 30.4 kb/s
  115. Count of elements                        : 2312
  116. Stream size                              : 22.9 MiB (0%)
  117. Title                                    : Eng/SUP
  118. Language                                 : English
  119. Default                                  : No
  120. Forced                                   : No
  121. Menu
  122. 00:00:00.000                             : en:第 01 章
  123. 00:08:22.000                             : en:第 02 章
  124. 00:22:15.958                             : en:第 03 章
  125. 00:33:42.417                             : en:第 04 章
  126. 00:42:44.750                             : en:第 05 章
  127. 00:51:32.708                             : en:第 06 章
  128. 01:00:33.167                             : en:第 07 章
  129. 01:10:29.583                             : en:第 08 章
  130. 01:19:06.583                             : en:第 09 章
  131. 01:30:03.375                             : en:第 10 章
  132. 01:37:41.500                             : en:第 11 章
  133. 01:42:10.000                             : en:第 12 章
复制代码

















保举请利用qBittorrent,utorrent,transmission等标准BT软件下载!以获得最快速度。奉求保种!





回复

使用道具 举报

懒得打字嘛,点击右侧快捷回复 【右侧内容,后台自定义】
您需要登录后才可以回帖 登录 | 立即加入

本版积分规则

Archiver|小黑屋| 蓝光电影网 |网站地图

Copyright © 2021 Comsenz Inc. Powered by 蓝光电影网

蓝光电影网

本站内容由用户自主分享和转载自互联网,转载目的在于传递更多信息,并不代表本网赞同其观点和对其真实性负责。

如有侵权、违反国家法律政策行为,请联系我们,我们会第一时间及时清除和处理!

举报反馈邮箱:[email protected]

快速回复 返回顶部 返回列表