找回密码

蓝光电影网

查看: 125|回复: 0

[剧情] 钱[中文字幕].Money.2019.1080p.BluRay.DTS.5.1.x264-MOMOHD 11.30GB

[复制链接]
蓝光币
8
发表于 2022-7-29 01:56:46 | 显示全部楼层 |阅读模式


◎标  题 钱
◎译  名 万诱金钱(港) / 钱力游戏(台) / 金钱 / Money
◎片  名 돈
◎年  代 2019
◎产  地 韩国
◎类  别 犯罪
◎语  言 韩语
◎上映日期 2019-03-20(韩国)
◎IMDb评分 6/10 (703人评价)
◎IMDb链接 https://www.imdb.com/title/tt6890618/
◎豆瓣评分 6.8/10 (12117人评价)
◎豆瓣链接 https://movie.douban.com/subject/26975855/
◎片  长 115分钟
◎导  演 朴世上 Noo-ri Park
◎编  剧 朴世上 Noo-ri Park
◎演  员 柳俊烈 Jun-yeol Ryu
       刘智泰 Ji-tae Yu
       赵宇镇 Woo-jin Jo
       金宰英 Jae-young Kim
       金敏载 Kim Min-jae
       郑满植 Man-shik Jeong
       元真儿 Jin-ah Won
       金钟秀 Jong-soo Kim
       孙钟学 Jong-Hak Son
       林世美 Se-Mi Im
       朴明申 Myung-shin Park
       郑道元 Do-won Jung
       郑基燮 Gi-seop Jeong
       南文哲 Moon-cheol Nam
       李东国 Do-gook Lee
       东铉培 Hyun-bae Dong
       卢尚贤 Steve Noh
       金姜贤 Gang-Hyun Kim
       洪仁 Hong In
       安贤彬 Hyun-Bin Ahn
       吴代焕 Oh Dae-hwan
       黄炳国 Byung-gook Hwang
       尹钟彬 Jong-bin Yoon
◎标  签 韩国 / 犯罪 / 金融 / 经济 / 剧情 / 人性 / 2019 / 钱
◎简  介
  刘智泰、柳俊烈有望主演电影[钱],影片报告普通工薪族投身股票市场后卷入庞大诡计的故事,柳俊烈饰演工薪阶级仆人公,刘智泰饰演证券市场的暗箱操纵者。影片估计六月开拍,双方掮客公司均暗示已收到提案,正在积极会商。
  1. ##### MediaInfo ######
  2. General
  3. Unique ID                                : 74497645216527158494014873911809471745 (0x380BB97D7A3D112698CBDF5A4E8AF501)
  4. Complete name                            : Money.2019.1080p.BluRay.DTS.5.1.x264-MOMOHD.mkv
  5. Format                                   : Matroska
  6. Format version                           : Version 4
  7. File size                                : 11.3 GiB
  8. Duration                                 : 1 h 55 min
  9. Overall bit rate                         : 14.0 Mb/s
  10. Movie name                               : Money.2019.1080p.BluRay.DTS.5.1.x264-PTer
  11. Encoded date                             : UTC 2020-03-18 00:53:01
  12. Writing application                      : mkvmerge v26.0.0 ('In The Game') 64-bit
  13. Writing library                          : libebml v1.3.6 + libmatroska v1.4.9
  14. Video
  15. ID                                       : 1
  16. Format                                   : AVC
  17. Format/Info                              : Advanced Video Codec
  18. Format profile                           : [email protected]
  19. Format settings                          : CABAC / 5 Ref Frames
  20. Format settings, CABAC                   : Yes
  21. Format settings, Reference frames        : 5 frames
  22. Codec ID                                 : V_MPEG4/ISO/AVC
  23. Duration                                 : 1 h 55 min
  24. Bit rate                                 : 12.5 Mb/s
  25. Width                                    : 1 920 pixels
  26. Height                                   : 808 pixels
  27. Display aspect ratio                     : 2.40:1
  28. Frame rate mode                          : Constant
  29. Frame rate                               : 23.976 (24000/1001/53875) FPS
  30. Color space                              : YUV
  31. Chroma subsampling                       : 4:2:0
  32. Bit depth                                : 8 bits
  33. Scan type                                : Progressive
  34. Bits/(Pixel*Frame)                       : 0.337
  35. Stream size                              : 10.1 GiB (89%)
  36. Writing library                          : x264 core 157 r2932 303c484
  37. Encoding settings                        : cabac=1 / ref=5 / deblock=1:-3:-3 / analyse=0x3:0x133 / me=umh / subme=11 / psy=1 / psy_rd=1.02:0.00 / mixed_ref=1 / me_range=32 / chroma_me=1 / trellis=2 / 8x8dct=1 / cqm=0 / deadzone=21,11 / fast_pskip=0 / chroma_qp_offset=-2 / threads=12 / lookahead_threads=3 / sliced_threads=0 / nr=0 / decimate=0 / interlaced=0 / NTM4NzU= / bluray_compat=0 / constrained_intra=0 / bframes=10 / b_pyramid=2 / b_adapt=2 / b_bias=0 / direct=3 / weightb=1 / open_gop=0 / weightp=2 / keyint=250 / keyint_min=23 / NTM4NzU=uuDQuD2mJt9fsCf / scenecut=40 / intra_refresh=0 / rc_lookahead=250 / rc=crf / mbtree=0 / crf=19.0 / qcomp=0.60 / qpmin=0 / qpmax=69 / qpstep=4 / vbv_maxrate=62500 / vbv_bufsize=78125 / crf_max=0.0 / nal_hrd=none / filler=0 / NTM4NzU=LmsMAP37EqsCpk / ip_ratio=1.30 / pb_ratio=1.20 / aq=3:0.80
  38. Language                                 : Korean
  39. Default                                  : Yes
  40. Forced                                   : No
  41. Color range                              : Limited
  42. Color primaries                          : BT.709
  43. Matrix coefficients                      : BT.709
  44. Audio
  45. ID                                       : 2
  46. Format                                   : DTS
  47. Format/Info                              : Digital Theater Systems
  48. Codec ID                                 : A_DTS
  49. Duration                                 : 1 h 55 min
  50. Bit rate mode                            : Constant
  51. Bit rate                                 : 1 509 kb/s
  52. Channel(s)                               : 6 channels
  53. Channel layout                           : C L R Ls Rs LFE
  54. Sampling rate                            : 48.0 kHz
  55. Frame rate                               : 93.750 FPS (512 SPF)
  56. Bit depth                                : 24 bits
  57. Compression mode                         : Lossy
  58. Stream size                              : 1.21 GiB (11%)
  59. Language                                 : Korean
  60. Default                                  : Yes
  61. Forced                                   : No
  62. Text
  63. ID                                       : 3
  64. Format                                   : UTF-8
  65. Codec ID                                 : S_TEXT/UTF8
  66. Codec ID/Info                            : UTF-8 Plain Text
  67. Duration                                 : 1 h 49 min
  68. Bit rate                                 : 52 b/s
  69. Count of elements                        : 1460
  70. Stream size                              : 41.9 KiB (0%)
  71. Language                                 : Chinese
  72. Default                                  : Yes
  73. Forced                                   : No
  74. Menu
  75. 00:00:00.000                             : :Chapter 1
  76. 00:09:26.357                             : :Chapter 2
  77. 00:22:13.249                             : :Chapter 3
  78. 00:30:47.804                             : :Chapter 4
  79. 00:42:35.845                             : :Chapter 5
  80. 00:53:46.014                             : :Chapter 6
  81. 01:04:08.845                             : :Chapter 7
  82. 01:12:56.372                             : :Chapter 8
  83. 01:22:31.238                             : :Chapter 9
  84. 01:33:42.742                             : :Chapter 10
  85. 01:39:56.324                             : :Chapter 11
  86. 01:49:20.679                             : :Chapter 12
复制代码

















保举请利用qBittorrent,utorrent,transmission等标准BT软件下载!以获得最快速度。奉求保种!





回复

使用道具 举报

懒得打字嘛,点击右侧快捷回复 【右侧内容,后台自定义】
您需要登录后才可以回帖 登录 | 立即加入

本版积分规则

Archiver|小黑屋| 蓝光电影网 |网站地图

Copyright © 2021 Comsenz Inc. Powered by 蓝光电影网

蓝光电影网

本站内容由用户自主分享和转载自互联网,转载目的在于传递更多信息,并不代表本网赞同其观点和对其真实性负责。

如有侵权、违反国家法律政策行为,请联系我们,我们会第一时间及时清除和处理!

举报反馈邮箱:[email protected]

快速回复 返回顶部 返回列表