找回密码

蓝光电影网

查看: 41|回复: 0

[剧情] 天涯海角[国粤多音轨/简繁英字幕].Lost.and.Found.1996.1080p.BluRay.DD2.0.2Audio.x265-10bit-BATHD 6.89GB

[复制链接]
蓝光币
7
发表于 2022-7-29 01:56:48 | 显示全部楼层 |阅读模式


◎标  题 天涯天涯
◎译  名 Lost and Found
◎年  代 1996
◎产  地 中国香港
◎类  别 剧情 / 恋爱
◎语  言 粤语
◎上映日期 1996-10-18(中国香港)
◎IMDb评分 7.3/10 (470人评价)
◎IMDb链接 https://www.imdb.com/title/tt0117904/
◎豆瓣评分 8.0/10 (10350人评价)
◎豆瓣链接 https://movie.douban.com/subject/1307724/
◎片  长 109分钟
◎导  演 李志毅 Chi-ngai Lee
◎编  剧 李志毅 Chi-ngai Lee
◎演  员 金城武 Takeshi Kaneshiro
       陈慧琳 Kelly Chen
       王敏德 Michael Wong
       陈小春 Jordan Chan
       何超仪 Josie Ho
       陈豪 Moses Chan
       陈德森 Teddy Chan
       张达明 Tat-Ming Cheung
       玛利亚 Maria Cordero
       方平 Henry Fong
       徐濠萦 Hilary Tsui
       李晓彤 Tina Lee
       滕丽名 Joyce Tang
       李志毅 Chi-ngai Lee
       谢家慧 Doris Tse
       曾志伟 Eric Tsang
       邹文怀 Raymond Chow
       雷颂德 Mark Lui
       黄仲标 Bill Wong
       麦兆辉 Alan Mak
       关信辉 Adrian Kwan
       曾景祥 Kinson Tsang
◎简  介
  少女琳(陈慧琳)得了血癌,就在她丢失于生与死的边沿时,结识了成熟稳重的苏格兰船员阿德(王敏德),听过阿德所讲的关于他故乡天涯天涯的故事后,琳感遭到一份莫名的缘分,但是忽然间阿德消失,失落之际,琳碰到专门替人寻觅失物的阿虫(金城武),聘请下他寻觅阿德,经过阿虫的辛劳尽力,琳与阿德终又碰头,本来阿德预备回故乡假寓。                                    
                                阿德走后,琳和阿虫一路干事时获得一种从没有过的充实和欢畅,但是她的心里始终惦念着天涯天涯,并决议在生命竣事之前,一定要去那边一趟。
  1. ##### MediaInfo ######
  2. General
  3. Unique ID                                : 8556468413590063126822928378235751802 (0x66FEA76B11C0FB5B2B4217E7EEC8D7A)
  4. Complete name                            : Lost.and.Found.1996.1080p.BluRay.DD2.0.2Audio.x265-10bit-BATHD.mkv
  5. Format                                   : Matroska
  6. Format version                           : Version 4
  7. File size                                : 6.88 GiB
  8. Duration                                 : 1 h 48 min
  9. Overall bit rate                         : 9 045 kb/s
  10. Movie name                               : hLost and Found 1996 1080p BluRay DD2.0 2Audio x265-10bit-HDS
  11. Encoded date                             : UTC 2022-07-28 01:54:02
  12. Writing application                      : mkvmerge v67.0.0 ('Under Stars') 64-bit
  13. Writing library                          : libebml v1.4.2 + libmatroska v1.6.4
  14. Video
  15. ID                                       : 1
  16. Format                                   : HEVC
  17. Format/Info                              : High Efficiency Video Coding
  18. Format profile                           : Main [email protected]@High
  19. Codec ID                                 : V_MPEGH/ISO/HEVC
  20. Duration                                 : 1 h 48 min
  21. Bit rate                                 : 8 232 kb/s
  22. Width                                    : 1 920 pixels
  23. Height                                   : 1 080 pixels
  24. Display aspect ratio                     : 16:9
  25. Frame rate mode                          : Constant
  26. Frame rate                               : 24.000 FPS
  27. Color space                              : YUV
  28. Chroma subsampling                       : 4:2:0
  29. Bit depth                                : 10 bits
  30. Bits/(Pixel*Frame)                       : 0.165
  31. Stream size                              : 6.27 GiB (91%)
  32. Title                                    : [email protected]
  33. Writing library                          : x265 - H.265/HEVC codec
  34. Default                                  : Yes
  35. Forced                                   : No
  36. Audio #1
  37. ID                                       : 2
  38. Format                                   : AC-3
  39. Format/Info                              : Audio Coding 3
  40. Commercial name                          : Dolby Digital
  41. Codec ID                                 : A_AC3
  42. Duration                                 : 1 h 48 min
  43. Bit rate mode                            : Constant
  44. Bit rate                                 : 384 kb/s
  45. Channel(s)                               : 2 channels
  46. Channel layout                           : L R
  47. Sampling rate                            : 48.0 kHz
  48. Frame rate                               : 31.250 FPS (1536 SPF)
  49. Compression mode                         : Lossy
  50. Stream size                              : 299 MiB (4%)
  51. Title                                    : Cantonese
  52. Language                                 : Chinese
  53. Service kind                             : Complete Main
  54. Default                                  : Yes
  55. Forced                                   : No
  56. Audio #2
  57. ID                                       : 3
  58. Format                                   : AC-3
  59. Format/Info                              : Audio Coding 3
  60. Commercial name                          : Dolby Digital
  61. Codec ID                                 : A_AC3
  62. Duration                                 : 1 h 48 min
  63. Bit rate mode                            : Constant
  64. Bit rate                                 : 384 kb/s
  65. Channel(s)                               : 2 channels
  66. Channel layout                           : L R
  67. Sampling rate                            : 48.0 kHz
  68. Frame rate                               : 31.250 FPS (1536 SPF)
  69. Compression mode                         : Lossy
  70. Stream size                              : 299 MiB (4%)
  71. Title                                    : Mandarin
  72. Language                                 : Chinese
  73. Service kind                             : Complete Main
  74. Default                                  : Yes
  75. Forced                                   : No
  76. Text #1
  77. ID                                       : 4
  78. Format                                   : PGS
  79. Muxing mode                              : zlib
  80. Codec ID                                 : S_HDMV/PGS
  81. Codec ID/Info                            : Picture based subtitle format used on BDs/HD-DVDs
  82. Duration                                 : 1 h 45 min
  83. Bit rate                                 : 29.4 kb/s
  84. Count of elements                        : 2327
  85. Stream size                              : 22.2 MiB (0%)
  86. Title                                    : CHS
  87. Language                                 : Chinese
  88. Default                                  : Yes
  89. Forced                                   : No
  90. Text #2
  91. ID                                       : 5
  92. Format                                   : PGS
  93. Muxing mode                              : zlib
  94. Codec ID                                 : S_HDMV/PGS
  95. Codec ID/Info                            : Picture based subtitle format used on BDs/HD-DVDs
  96. Duration                                 : 1 h 45 min
  97. Bit rate                                 : 31.6 kb/s
  98. Count of elements                        : 2327
  99. Stream size                              : 23.9 MiB (0%)
  100. Title                                    : CHT
  101. Language                                 : Chinese
  102. Default                                  : Yes
  103. Forced                                   : No
  104. Text #3
  105. ID                                       : 6
  106. Format                                   : PGS
  107. Muxing mode                              : zlib
  108. Codec ID                                 : S_HDMV/PGS
  109. Codec ID/Info                            : Picture based subtitle format used on BDs/HD-DVDs
  110. Duration                                 : 1 h 45 min
  111. Bit rate                                 : 30.4 kb/s
  112. Count of elements                        : 2312
  113. Stream size                              : 22.9 MiB (0%)
  114. Title                                    : ENG
  115. Language                                 : English
  116. Default                                  : Yes
  117. Forced                                   : No
  118. Menu
  119. 00:00:00.000                             : en:第 01 章
  120. 00:08:22.000                             : en:第 02 章
  121. 00:22:15.958                             : en:第 03 章
  122. 00:33:42.417                             : en:第 04 章
  123. 00:42:44.750                             : en:第 05 章
  124. 00:51:32.708                             : en:第 06 章
  125. 01:00:33.167                             : en:第 07 章
  126. 01:10:29.583                             : en:第 08 章
  127. 01:19:06.583                             : en:第 09 章
  128. 01:30:03.375                             : en:第 10 章
  129. 01:37:41.500                             : en:第 11 章
  130. 01:42:10.000                             : en:第 12 章
复制代码

















保举请利用qBittorrent,utorrent,transmission等标准BT软件下载!以获得最快速度。奉求保种!





回复

使用道具 举报

懒得打字嘛,点击右侧快捷回复 【右侧内容,后台自定义】
您需要登录后才可以回帖 登录 | 立即加入

本版积分规则

Archiver|小黑屋| 蓝光电影网 |网站地图

Copyright © 2021 Comsenz Inc. Powered by 蓝光电影网

蓝光电影网

本站内容由用户自主分享和转载自互联网,转载目的在于传递更多信息,并不代表本网赞同其观点和对其真实性负责。

如有侵权、违反国家法律政策行为,请联系我们,我们会第一时间及时清除和处理!

举报反馈邮箱:[email protected]

快速回复 返回顶部 返回列表