找回密码

蓝光电影网

查看: 54|回复: 0

[剧情] 功夫厨神[国粤多音轨/简繁字幕].Kung.Fu.Chefs.2009.1080p.BluRay.DD5.1.2Audio.x265-10bit-BATHD 5.98GB

[复制链接]
蓝光币
7
发表于 2022-7-29 01:56:57 | 显示全部楼层 |阅读模式


◎标  题 功夫厨神
◎译  名 Kung Fu Chefs
◎片  名 功夫廚神
◎年  代 2009
◎产  地 中国大陆
◎类  别 笑剧 / 行动
◎语  言 汉语普通话
◎上映日期 2009-05-08
◎IMDb评分 5.2/10 (600人评价)
◎IMDb链接 https://www.imdb.com/title/tt1372692/
◎豆瓣评分 4.7/10 (4131人评价)
◎豆瓣链接 https://movie.douban.com/subject/3539855/
◎片  长 China: 92 分钟
◎导  演 叶永健 Ken Yip Wing-Kin
◎编  剧 王博 Bo Wang
       郑子滔 Cyrus Cheng
◎演  员 洪金宝 Sammo Hung Kam-Bo
       吴建豪 Vanness Wu
       应采儿 Cherrie Ying
       林子聪 Tze Chung Lam
       樊少皇 Siu-Wong Fan
       吴建飞 Jianfei Wu
       李海生 Hoi Sang Lee
       张文杰 Man Kit Cheung
       谷峰 Feng Ku
       何贵林 Gwai-lam Ho
       加护亚依 Ai Kago
◎标  签 洪金宝 / 香港 / 功夫厨神 / 香港电影 / 笑剧 / 行动 / 吴建豪 / 2009
◎简  介
  寿宴上,村长黄秉义(洪金宝 饰)展现了精湛的厨艺,龙头刀法分外出众。帮厨阿良(洪天明 饰)受黄继祖(樊少皇 饰)指示,在菜里投毒谗谄黄秉义,使后者被愤慨的村民驱逐,龙头刀也被褫夺。黄秉义来到徒弟女儿沈青(应采儿 饰)开的四海一品店,在此结识了刚刚学成下山的龙建一(吴建豪 饰)。两人对四川名菜开水白菜的批评不约而合。黄秉义更是大纲契领地指出了关键,厨师不服,与之比拼厨艺,成果心悦诚服,愤然离去。店中不成一日无厨,所以沈青力邀黄秉义掌勺,龙建一见所投靠的厨师不及黄秉义,便要跟他比拼刀工,成果输得心悦诚服,情愿做其门生,而且在帮厨中与沈莹(加护亚依 饰)暗生情愫。黄继祖为报父仇,接二连三前来搬弄,因而双方展开了一场餐桌上的较劲……
  1. ##### MediaInfo ######
  2. General
  3. Unique ID                                : 4413878664642610606203421369007450727 (0x35215051A51D0804AE4201C0161AA67)
  4. Complete name                            : Kung.Fu.Chefs.2009.1080p.BluRay.DD5.1.2Audio.x265-10bit-BATHD.mkv
  5. Format                                   : Matroska
  6. Format version                           : Version 4
  7. File size                                : 5.98 GiB
  8. Duration                                 : 1 h 31 min
  9. Overall bit rate                         : 9 383 kb/s
  10. Movie name                               : Kung Fu Chefs 2009 1080p BluRay DD5.1 2Audio x265-10bit-HDS
  11. Encoded date                             : UTC 2022-07-27 23:20:52
  12. Writing application                      : mkvmerge v69.0.0 ('Day And Age') 64-bit
  13. Writing library                          : libebml v1.4.2 + libmatroska v1.6.4
  14. Video
  15. ID                                       : 1
  16. Format                                   : HEVC
  17. Format/Info                              : High Efficiency Video Coding
  18. Format profile                           : Main [email protected]@High
  19. Codec ID                                 : V_MPEGH/ISO/HEVC
  20. Duration                                 : 1 h 31 min
  21. Bit rate                                 : 8 069 kb/s
  22. Width                                    : 1 920 pixels
  23. Height                                   : 1 080 pixels
  24. Display aspect ratio                     : 16:9
  25. Frame rate mode                          : Constant
  26. Frame rate                               : 24.000 FPS
  27. Color space                              : YUV
  28. Chroma subsampling                       : 4:2:0
  29. Bit depth                                : 10 bits
  30. Bits/(Pixel*Frame)                       : 0.162
  31. Stream size                              : 5.14 GiB (86%)
  32. Title                                    : @HDSky
  33. Writing library                          : x265 - H.265/HEVC codec
  34. Default                                  : Yes
  35. Forced                                   : No
  36. Audio #1
  37. ID                                       : 2
  38. Format                                   : AC-3
  39. Format/Info                              : Audio Coding 3
  40. Commercial name                          : Dolby Digital
  41. Codec ID                                 : A_AC3
  42. Duration                                 : 1 h 31 min
  43. Bit rate mode                            : Constant
  44. Bit rate                                 : 640 kb/s
  45. Channel(s)                               : 6 channels
  46. Channel layout                           : L R C LFE Ls Rs
  47. Sampling rate                            : 48.0 kHz
  48. Frame rate                               : 31.250 FPS (1536 SPF)
  49. Compression mode                         : Lossy
  50. Stream size                              : 418 MiB (7%)
  51. Title                                    : Cantonese
  52. Language                                 : Chinese
  53. Service kind                             : Complete Main
  54. Default                                  : Yes
  55. Forced                                   : No
  56. Audio #2
  57. ID                                       : 3
  58. Format                                   : AC-3
  59. Format/Info                              : Audio Coding 3
  60. Commercial name                          : Dolby Digital
  61. Codec ID                                 : A_AC3
  62. Duration                                 : 1 h 31 min
  63. Bit rate mode                            : Constant
  64. Bit rate                                 : 640 kb/s
  65. Channel(s)                               : 6 channels
  66. Channel layout                           : L R C LFE Ls Rs
  67. Sampling rate                            : 48.0 kHz
  68. Frame rate                               : 31.250 FPS (1536 SPF)
  69. Compression mode                         : Lossy
  70. Stream size                              : 418 MiB (7%)
  71. Title                                    : Mandarin
  72. Language                                 : Chinese
  73. Service kind                             : Complete Main
  74. Default                                  : Yes
  75. Forced                                   : No
  76. Text #1
  77. ID                                       : 4
  78. Format                                   : PGS
  79. Muxing mode                              : zlib
  80. Codec ID                                 : S_HDMV/PGS
  81. Codec ID/Info                            : Picture based subtitle format used on BDs/HD-DVDs
  82. Duration                                 : 1 h 27 min
  83. Bit rate                                 : 30.8 kb/s
  84. Count of elements                        : 2098
  85. Stream size                              : 19.3 MiB (0%)
  86. Title                                    : CHT
  87. Language                                 : Chinese
  88. Default                                  : Yes
  89. Forced                                   : No
  90. Text #2
  91. ID                                       : 5
  92. Format                                   : PGS
  93. Muxing mode                              : zlib
  94. Codec ID                                 : S_HDMV/PGS
  95. Codec ID/Info                            : Picture based subtitle format used on BDs/HD-DVDs
  96. Duration                                 : 1 h 27 min
  97. Bit rate                                 : 29.7 kb/s
  98. Count of elements                        : 2098
  99. Stream size                              : 18.7 MiB (0%)
  100. Title                                    : CHS
  101. Language                                 : Chinese
  102. Default                                  : Yes
  103. Forced                                   : No
  104. Menu
  105. 00:00:00.000                             : en:第 01 章
  106. 00:08:17.583                             : en:第 02 章
  107. 00:14:19.292                             : en:第 03 章
  108. 00:23:02.000                             : en:第 04 章
  109. 00:30:36.167                             : en:第 05 章
  110. 00:37:20.250                             : en:第 06 章
  111. 00:44:15.292                             : en:第 07 章
  112. 00:50:50.000                             : en:第 08 章
  113. 00:58:39.125                             : en:第 09 章
  114. 01:09:13.583                             : en:第 10 章
  115. 01:13:24.917                             : en:第 11 章
  116. 01:22:51.625                             : en:第 12 章
复制代码

















保举请利用qBittorrent,utorrent,transmission等标准BT软件下载!以获得最快速度。奉求保种!





回复

使用道具 举报

懒得打字嘛,点击右侧快捷回复 【右侧内容,后台自定义】
您需要登录后才可以回帖 登录 | 立即加入

本版积分规则

Archiver|小黑屋| 蓝光电影网 |网站地图

Copyright © 2021 Comsenz Inc. Powered by 蓝光电影网

蓝光电影网

本站内容由用户自主分享和转载自互联网,转载目的在于传递更多信息,并不代表本网赞同其观点和对其真实性负责。

如有侵权、违反国家法律政策行为,请联系我们,我们会第一时间及时清除和处理!

举报反馈邮箱:[email protected]

快速回复 返回顶部 返回列表