找回密码

蓝光电影网

查看: 87|回复: 0

[剧情] 桃色交易[繁英字幕].Indecent.Proposal.1993.BluRay.1080p.TrueHD.5.1.x265.10bit-ALT 14.63GB

[复制链接]
蓝光币
7
发表于 2022-7-29 01:56:58 | 显示全部楼层 |阅读模式


◎标  题 桃色买卖
◎译  名 不道德的买卖 / 不情之请
◎片  名 Indecent Proposal
◎年  代 1993
◎产  地 美国
◎类  别 剧情 / 恋爱
◎语  言 英语
◎上映日期 1993-04-07
◎IMDb评分 6/10 (68369人评价)
◎IMDb链接 https://www.imdb.com/title/tt0107211/
◎豆瓣评分 7.4/10 (16390人评价)
◎豆瓣链接 https://movie.douban.com/subject/1301535/
◎片  长 117 分钟
◎导  演 阿德里安·莱恩 Adrian Lyne
◎编  剧 艾米·霍尔登·琼斯 Amy Holden Jones
       杰克·恩格尔哈德 Jack Engelhard
◎演  员 罗伯特·雷德福 Robert Redford
       黛米·摩尔 Demi Moore
       伍迪·哈里森 Woody Harrelson
       奥利弗·普莱特 Oliver Platt
       比利·鲍伯·松顿 Billy Bob Thornton
       艾伦·D·柏温 Alan D. Purwin
       卢之梅 Chi Muoi Lo
       亚历克斯·加特纳 Alex Gartner
       汤姆·舒尔曼 Tom Schulman
       约翰·巴里 John Barry
       霍华德·阿瑟顿 Howard Atherton
       乔·哈欣 Joe Hutshing
       林戴尔·奎尤 Lyndell Quiyou
       邦尼·帕克尔 Bunny Parker
       Aldric La'Auli Porter Aldric La'Auli Porter
◎标  签 恋爱 / 美国 / 人性 / 美国电影 / 剧情 / DemiMoore / 感情 / 1993
◎简  介
  戴维(伍迪·哈里森 Woody Harrelso 饰)和黛安娜(黛米·摩尔 Demi Moor 饰)是一对豪情很好的夫妻,两人奇迹成功,生活幸运,但经济冷落的到来使两野生作日就衰败,甚至连住房都没法筹划。他们不甘以失利,下决心去赌城一搏。起头时,他们命运极好,但很快,两人就输光了一切的钱。这时,一位年老英俊的百万富翁盖奇(罗伯特·雷德福 Robert Redfor 饰)提出帮他们,但条件是用100万调换与黛安娜共度一夜,终究,金钱的引诱力克服了一切,佳耦两人立下了字据,做了桃色买卖。两人回抵家中约定永不提此事,但适得其反,两人豪情出现裂缝。这时,盖奇又进入了他们的生活,热烈地追求,戴维一气之下离家出走。终极这一对已经的爱人能否可以既往不咎?而百万富翁究竟是至心爱着戴安娜,还是还有其他目标?
  1. ##### MediaInfo ######
  2. General
  3. Unique ID                                : 262646854037854739828864820365772792497 (0xC597F1B079DE5577D2645F5F95B922B1)
  4. Complete name                            : Indecent.Proposal.1993.BluRay.1080p.TrueHD.5.1.x265.10bit-ALT.mkv
  5. Format                                   : Matroska
  6. Format version                           : Version 4
  7. File size                                : 14.6 GiB
  8. Duration                                 : 1 h 56 min
  9. Overall bit rate mode                    : Variable
  10. Overall bit rate                         : 17.9 Mb/s
  11. Encoded date                             : UTC 2022-07-27 02:26:38
  12. Writing application                      : mkvmerge v49.0.0 ('Sick Of Losing Soulmates') 64-bit
  13. Writing library                          : libebml v1.4.0 + libmatroska v1.6.1
  14. Video
  15. ID                                       : 1
  16. Format                                   : HEVC
  17. Format/Info                              : High Efficiency Video Coding
  18. Format profile                           : Main [email protected]@High
  19. Codec ID                                 : V_MPEGH/ISO/HEVC
  20. Duration                                 : 1 h 56 min
  21. Bit rate                                 : 13.7 Mb/s
  22. Width                                    : 1 920 pixels
  23. Height                                   : 1 080 pixels
  24. Display aspect ratio                     : 16:9
  25. Frame rate mode                          : Constant
  26. Frame rate                               : 23.976 (24000/1001/53875) FPS
  27. Color space                              : YUV
  28. Chroma subsampling                       : 4:2:0
  29. Bit depth                                : 10 bits
  30. Bits/(Pixel*Frame)                       : 0.276
  31. Stream size                              : 11.2 GiB (77%)
  32. Title                                    : HEVC, [email protected]@High, 24/1.001 fps @ 13722 kbps
  33. Writing library                          : x265 3.5+36-1f2c8da77:[Windows][GCC 11.2.0][64 bit] 10bit
  34. Encoding settings                        : cpuid=538751111039 / frame-threads=4 / numa-pools=20 / wpp / no-pmode / no-pme / no-psnr / no-ssim / log-level=2 / input-csp=1 / input-res=1920x1080 / interlace=0 / total-frames=168264 / level-idc=51 / high-tier=1 / uhd-bd=0 / ref=5 / no-allow-non-conformance / no-repeat-headers / annexb / no-aud / no-eob / no-eos / no-hrd / info / hash=0 / no-temporal-layers / open-gop / min-keyint=24 / keyint=240 / gop-lookahead=0 / bframes=6 / b-adapt=2 / b-pyramid / bframe-bias=0 / rc-lookahead=40 / lookahead-slices=0 / NTM4NzU=uuDQuD2mJt9fsCf / scenecut=40 / no-hist-scenecut / radl=0 / no-splice / no-intra-refresh / ctu=32 / min-cu-size=8 / no-rect / no-amp / max-tu-size=32 / tu-inter-depth=3 / tu-intra-depth=3 / limit-tu=4 / rdoq-level=2 / dynamic-rd=0.00 / no-ssim-rd / signhide / no-tskip / nr-intra=0 / nr-inter=0 / no-constrained-intra / no-strong-intra-smoothing / max-merge=4 / limit-refs=1 / limit-modes / me=3 / subme=4 / merange=25 / temporal-mvp / no-frame-dup / no-hme / weightp / weightb / no-analyze-src-pics / deblock=-3:-3 / no-sao / no-sao-non-deblock / rd=6 / selective-sao=0 / no-early-skip / rskip / no-fast-intra / no-tskip-fast / no-cu-lossless / b-intra / no-splitrd-skip / rdpenalty=0 / psy-rd=2.00 / psy-rdoq=1.00 / no-rd-refine / no-lossless / cbqpoffs=-2 / crqpoffs=-2 / rc=crf / crf=19.5 / qcomp=0.65 / qpstep=4 / stats-write=0 / stats-read=0 / vbv-maxrate=80000 / vbv-bufsize=80000 / vbv-init=0.9 / min-vbv-fullness=50.0 / max-vbv-fullness=80.0 / crf-max=0.0 / crf-min=0.0 / ipratio=1.40 / pbratio=1.30 / aq-mode=2 / aq-strength=0.85 / cutree / zone-count=0 / no-strict-cbr / qg-size=32 / no-rc-grain / qpmax=69 / qpmin=0 / no-const-vbv / sar=1 / overscan=0 / videoformat=5 / range=0 / colorprim=1 / transfer=1 / colormatrix=1 / chromaloc=0 / display-window=0 / cll=0,0 / min-luma=0 / max-luma=1023 / log2-max-poc-lsb=8 / vui-timing-info / vui-hrd-info / slices=1 / no-opt-qp-pps / no-opt-ref-list-length-pps / no-multi-pass-opt-rps / scenecut-bias=0.05 / hist-threshold=0.03 / no-opt-cu-delta-qp / no-aq-motion / no-hdr10 / no-hdr10-opt / no-dhdr10-opt / no-idr-recovery-sei / analysis-reuse-level=0 / analysis-save-reuse-level=0 / analysis-load-reuse-level=0 / scale-factor=0 / refine-intra=0 / refine-inter=0 / refine-mv=1 / refine-ctu-distortion=0 / no-limit-sao / ctu-info=0 / no-lowpass-dct / refine-analysis-type=0 / copy-pic=1 / max-ausize-factor=1.0 / no-dynamic-refine / no-single-sei / no-hevc-aq / no-svt / no-field / qp-adaptation-range=1.00 / scenecut-aware-qp=0conformance-window-offsets / right=0 / bottom=0 / NTM4NzU= / decoder-max-rate=0 / no-vbv-live-multi-pass
  35. Language                                 : English
  36. Default                                  : Yes
  37. Forced                                   : No
  38. Color range                              : Limited
  39. Color primaries                          : BT.709
  40. Transfer characteristics                 : BT.709
  41. Matrix coefficients                      : BT.709
  42. Audio #1
  43. ID                                       : 2
  44. Format                                   : MLP FBA
  45. Format/Info                              : Meridian Lossless Packing FBA
  46. Commercial name                          : Dolby TrueHD
  47. Codec ID                                 : A_TRUEHD
  48. Duration                                 : 1 h 56 min
  49. Bit rate mode                            : Variable
  50. Bit rate                                 : 3 159 kb/s
  51. Maximum bit rate                         : 4 455 kb/s
  52. Channel(s)                               : 6 channels
  53. Channel layout                           : L R C LFE Ls Rs
  54. Sampling rate                            : 48.0 kHz
  55. Frame rate                               : 1 200.000 FPS (40 SPF)
  56. Compression mode                         : Lossless
  57. Stream size                              : 2.58 GiB (18%)
  58. Title                                    : English Dolby TrueHD 5.1 @ 3799 kbps
  59. Language                                 : English
  60. Default                                  : Yes
  61. Forced                                   : No
  62. Audio #2
  63. ID                                       : 3
  64. Format                                   : AC-3
  65. Format/Info                              : Audio Coding 3
  66. Commercial name                          : Dolby Digital
  67. Codec ID                                 : A_AC3
  68. Duration                                 : 1 h 56 min
  69. Bit rate mode                            : Constant
  70. Bit rate                                 : 640 kb/s
  71. Channel(s)                               : 6 channels
  72. Channel layout                           : L R C LFE Ls Rs
  73. Sampling rate                            : 48.0 kHz
  74. Frame rate                               : 31.250 FPS (1536 SPF)
  75. Compression mode                         : Lossy
  76. Stream size                              : 535 MiB (4%)
  77. Title                                    : English Dolby Digital Audio 5.1 @ 640 kbps
  78. Language                                 : English
  79. Service kind                             : Complete Main
  80. Default                                  : No
  81. Forced                                   : No
  82. Audio #3
  83. ID                                       : 4
  84. Format                                   : AC-3
  85. Format/Info                              : Audio Coding 3
  86. Commercial name                          : Dolby Digital
  87. Codec ID                                 : A_AC3
  88. Duration                                 : 1 h 56 min
  89. Bit rate mode                            : Constant
  90. Bit rate                                 : 224 kb/s
  91. Channel(s)                               : 2 channels
  92. Channel layout                           : L R
  93. Sampling rate                            : 48.0 kHz
  94. Frame rate                               : 31.250 FPS (1536 SPF)
  95. Compression mode                         : Lossy
  96. Stream size                              : 187 MiB (1%)
  97. Title                                    : English Dolby Digital Audio 2.0 @ 224 kbps  Commentary
  98. Language                                 : English
  99. Service kind                             : Complete Main
  100. Default                                  : No
  101. Forced                                   : No
  102. Text #1
  103. ID                                       : 5
  104. Format                                   : PGS
  105. Codec ID                                 : S_HDMV/PGS
  106. Codec ID/Info                            : Picture based subtitle format used on BDs/HD-DVDs
  107. Duration                                 : 1 h 49 min
  108. Bit rate                                 : 28.0 kb/s
  109. Count of elements                        : 2150
  110. Stream size                              : 22.0 MiB (0%)
  111. Title                                    : Eng/SUP
  112. Language                                 : English
  113. Default                                  : No
  114. Forced                                   : No
  115. Text #2
  116. ID                                       : 6
  117. Format                                   : PGS
  118. Codec ID                                 : S_HDMV/PGS
  119. Codec ID/Info                            : Picture based subtitle format used on BDs/HD-DVDs
  120. Duration                                 : 1 h 49 min
  121. Bit rate                                 : 16.9 kb/s
  122. Count of elements                        : 2008
  123. Stream size                              : 13.3 MiB (0%)
  124. Title                                    : Cht/SUP  原盘繁体
  125. Language                                 : Chinese
  126. Default                                  : No
  127. Forced                                   : No
  128. Text #3
  129. ID                                       : 7
  130. Format                                   : PGS
  131. Codec ID                                 : S_HDMV/PGS
  132. Codec ID/Info                            : Picture based subtitle format used on BDs/HD-DVDs
  133. Duration                                 : 1 h 50 min
  134. Bit rate                                 : 17.9 kb/s
  135. Count of elements                        : 1920
  136. Stream size                              : 14.2 MiB (0%)
  137. Title                                    : Cht/SUP  原盘繁体
  138. Language                                 : Chinese
  139. Default                                  : Yes
  140. Forced                                   : No
  141. Text #4
  142. ID                                       : 8
  143. Format                                   : PGS
  144. Codec ID                                 : S_HDMV/PGS
  145. Codec ID/Info                            : Picture based subtitle format used on BDs/HD-DVDs
  146. Duration                                 : 1 h 52 min
  147. Bit rate                                 : 29.3 kb/s
  148. Count of elements                        : 1542
  149. Stream size                              : 23.7 MiB (0%)
  150. Title                                    : Eng/SUP  Commentary
  151. Language                                 : English
  152. Default                                  : No
  153. Forced                                   : No
  154. Menu
  155. 00:00:00.000                             : en:第 01 章
  156. 00:09:48.421                             : en:第 02 章
  157. 00:22:06.367                             : en:第 03 章
  158. 00:29:20.717                             : en:第 04 章
  159. 00:37:21.114                             : en:第 05 章
  160. 00:41:56.347                             : en:第 06 章
  161. 00:45:02.742                             : en:第 07 章
  162. 00:57:48.674                             : en:第 08 章
  163. 01:07:27.585                             : en:第 09 章
  164. 01:15:33.863                             : en:第 10 章
  165. 01:21:58.080                             : en:第 11 章
  166. 01:32:54.277                             : en:第 12 章
  167. 01:38:19.143                             : en:第 13 章
  168. 01:44:49.158                             : en:第 14 章
  169. 01:48:57.281                             : en:第 15 章
  170. 01:52:17.481                             : en:第 16 章
复制代码

















保举请利用qBittorrent,utorrent,transmission等标准BT软件下载!以获得最快速度。奉求保种!





回复

使用道具 举报

懒得打字嘛,点击右侧快捷回复 【右侧内容,后台自定义】
您需要登录后才可以回帖 登录 | 立即加入

本版积分规则

Archiver|小黑屋| 蓝光电影网 |网站地图

Copyright © 2021 Comsenz Inc. Powered by 蓝光电影网

蓝光电影网

本站内容由用户自主分享和转载自互联网,转载目的在于传递更多信息,并不代表本网赞同其观点和对其真实性负责。

如有侵权、违反国家法律政策行为,请联系我们,我们会第一时间及时清除和处理!

举报反馈邮箱:[email protected]

快速回复 返回顶部 返回列表