找回密码

蓝光电影网

查看: 112|回复: 0

[剧情] 警界争雄[简繁字幕].Department.36.2004.1080p.BluRay.x265.10bit.DTS-CTRLHD 7.67GB

[复制链接]
蓝光币
8
发表于 2022-7-29 01:57:02 | 显示全部楼层 |阅读模式


◎标  题 警界争雄
◎译  名 36警局 / 警界双雄 / 犯罪河岸 / 二捕曲 / 36总局
◎片  名 36 Quai des Orfèvres
◎年  代 2004
◎产  地 法国
◎类  别 剧情 / 行动 / 惊悚 / 犯罪
◎语  言 法语
◎上映日期 2005-10-01(中国大陆) / 2004-11-24(法国)
◎IMDb评分 7.1/10 (17298人评价)
◎IMDb链接 https://www.imdb.com/title/tt0390808/
◎豆瓣评分 7.5/10 (4065人评价)
◎豆瓣链接 https://movie.douban.com/subject/1316561/
◎片  长 111 分钟
◎导  演 奥利维埃·马夏尔 Olivier Marchal
◎编  剧 奥利维埃·马夏尔 Olivier Marchal
       朱利安·罗贝侬 Julien Rappeneau
◎演  员 丹尼尔·奥特伊 Daniel Auteuil
       热拉尔·德帕迪约 Gérard Depardieu
       安德烈·杜索里埃 André Dussollier
       罗什迪·泽姆 Roschdy Zem
       瓦莱丽亚·戈利诺 Valeria Golino
       丹尼尔·杜瓦尔 Daniel Duval
       法朗西斯·瑞纳德 Francis Renaud
       卡特琳·马沙尔 Catherine Marchal
       盖伊·勒克卢瑟 Guy Lecluyse
       樊尚·莫斯卡托 Vincent Moscato
       安妮·康斯金尼 Anne Consigny
       史蒂芬·梅茨格 Stéphane Metzger
       伊凡·弗拉内克 Ivan Franek
       Cyrille Hertel Cyrille Hertel
       卢德维克·伯特希尔克 Ludovic Berthillot
       乔·普雷斯蒂亚 Jo Prestia
       奥利维埃·马夏尔 Olivier Marchal
       米兰妮·让帕诺米 Mylène Jampanoï
       米琳娜·德蒙若 Mylène Demongeot
       Vincent Bowen Vincent Bowen
       Robert Hoehn Robert Hoehn
       Hugues Darmois Hugues Darmois
       Denis Rouden Denis Rouden
       Hugues Darmois Hugues Darmois
       奥利维耶·卡邦 Olivier Carbone
       Nathalie du Roscoat Nathalie du Roscoat
       Benoît Lestang Benoît Lestang
        Christian Tomikowski
◎简  介
  巴黎连续发生多起血腥暴力事务,一时候整座城市堕入了极端发急当中。巴黎警界两大部分BRI和OCU公然角力,势要将连番犯案的悍匪绳之于法。但是两支队伍的处事气概迥然各异,空缺的36总局局长位置也成了他们残暴合作的导火索。BRI的首席警官莱奥(丹尼尔·奥特尤尔 Daniel Auteuil 饰)不惜帮线人隐瞒杀人犯罪的究竟来获得情报,而OCU的首席警官丹尼斯(杰拉尔·德帕迪约 Gérard Depardieu 饰)更加了能亲手捉住劫匪以谋求权位而不择手段,伺机寻觅机遇整垮莱奥。终究,丹尼斯将莱奥密告,莱奥被判处8年禁锢,妻子也是以丧命。失衡的道德线,罪行背后的真相,刑满出狱的莱奥决议向丹尼斯展开掉臂一切的复仇。                                       
                                    按照实在事务改编的《警界争雄》荣获2005年第30届凯撒奖最好影片在内的多项提名,成为2005年法国全年十大卖座电影之一,被称为法国版《无间道》。...
  1. ##### MediaInfo ######
  2. General
  3. Unique ID                                : 189627565581189066934576559858999848689 (0x8EA8F0D0A0B36656A4318E92D4876EF1)
  4. Complete name                            : Department.36.2004.1080p.BluRay.x265.10bit.DTS-CTRLHD.mkv
  5. Format                                   : Matroska
  6. Format version                           : Version 1
  7. File size                                : 7.67 GiB
  8. Duration                                 : 1 h 51 min
  9. Overall bit rate                         : 9 892 kb/s
  10. Encoded date                             : UTC 2022-07-26 21:58:43
  11. Writing application                      : mkvmerge v2.2.0 ('Turn It On Again') built on Mar  4 2008 13:20:25
  12. Writing library                          : libebml v0.7.7 + libmatroska v0.8.1
  13. Attachments                              : MSYH.TTF / MSYH_chscht.ttf / MSYHBD.TTF / tahoma.ttf
  14. Video
  15. ID                                       : 1
  16. Format                                   : HEVC
  17. Format/Info                              : High Efficiency Video Coding
  18. Format profile                           : Main [email protected]@Main
  19. Codec ID                                 : V_MPEGH/ISO/HEVC
  20. Duration                                 : 1 h 51 min
  21. Bit rate                                 : 8 186 kb/s
  22. Width                                    : 1 914 pixels
  23. Height                                   : 816 pixels
  24. Display aspect ratio                     : 2.35:1
  25. Frame rate mode                          : Constant
  26. Frame rate                               : 23.976 (24000/1001/53875) FPS
  27. Color space                              : YUV
  28. Chroma subsampling                       : 4:2:0
  29. Bit depth                                : 10 bits
  30. Bits/(Pixel*Frame)                       : 0.219
  31. Stream size                              : 6.35 GiB (83%)
  32. Default                                  : Yes
  33. Forced                                   : No
  34. Audio
  35. ID                                       : 2
  36. Format                                   : DTS
  37. Format/Info                              : Digital Theater Systems
  38. Codec ID                                 : A_DTS
  39. Duration                                 : 1 h 51 min
  40. Bit rate mode                            : Constant
  41. Bit rate                                 : 1 509 kb/s
  42. Channel(s)                               : 6 channels
  43. Channel layout                           : C L R Ls Rs LFE
  44. Sampling rate                            : 48.0 kHz
  45. Frame rate                               : 93.750 FPS (512 SPF)
  46. Bit depth                                : 24 bits
  47. Compression mode                         : Lossy
  48. Stream size                              : 1.17 GiB (15%)
  49. Title                                    : 法语
  50. Language                                 : French
  51. Default                                  : Yes
  52. Forced                                   : No
  53. Statistics Tags Issue                    : mkvmerge v67.0.0 ('Under Stars') 64-bit 2022-07-26 09:55:48 / mkvmerge v2.2.0 ('Turn It On Again') built on Mar  4 2008 13:20:25 2022-07-26 21:58:43
  54. FromStats_BitRate                        : 1509002
  55. FromStats_Duration                       : 01:51:01.408000000
  56. FromStats_FrameCount                     : 624507
  57. FromStats_StreamSize                     : 1256510288
  58. Text #1
  59. ID                                       : 3
  60. Format                                   : ASS
  61. Codec ID                                 : S_TEXT/ASS
  62. Codec ID/Info                            : Advanced Sub Station Alpha
  63. Compression mode                         : Lossless
  64. Title                                    : chs
  65. Language                                 : Chinese
  66. Default                                  : Yes
  67. Forced                                   : No
  68. Text #2
  69. ID                                       : 4
  70. Format                                   : ASS
  71. Codec ID                                 : S_TEXT/ASS
  72. Codec ID/Info                            : Advanced Sub Station Alpha
  73. Compression mode                         : Lossless
  74. Title                                    : cht
  75. Language                                 : Chinese
  76. Default                                  : No
  77. Forced                                   : No
复制代码

















保举请利用qBittorrent,utorrent,transmission等标准BT软件下载!以获得最快速度。奉求保种!





回复

使用道具 举报

懒得打字嘛,点击右侧快捷回复 【右侧内容,后台自定义】
您需要登录后才可以回帖 登录 | 立即加入

本版积分规则

Archiver|小黑屋| 蓝光电影网 |网站地图

Copyright © 2021 Comsenz Inc. Powered by 蓝光电影网

蓝光电影网

本站内容由用户自主分享和转载自互联网,转载目的在于传递更多信息,并不代表本网赞同其观点和对其真实性负责。

如有侵权、违反国家法律政策行为,请联系我们,我们会第一时间及时清除和处理!

举报反馈邮箱:[email protected]

快速回复 返回顶部 返回列表