找回密码

蓝光电影网

查看: 186|回复: 1

[剧情] 夏娃的女儿[中文字幕].Daughters.of.Eve.1985.1080p.BluRay.DTS.x265-10bit-BATHD 9.99GB

[复制链接]
蓝光币
8
发表于 2022-7-29 01:57:05 | 显示全部楼层 |阅读模式


◎标  题 夏娃的女儿
◎译  名 Daughters of Eve
◎片  名 Silip
◎年  代 1985
◎产  地 菲律宾
◎类  别 可骇
◎语  言 塔加路语 / 英语
◎上映日期 1985-02-07(菲律宾)
◎IMDb评分 6/10 (829人评价)
◎IMDb链接 https://www.imdb.com/title/tt0292236/
◎豆瓣评分 6.9/10 (285人评价)
◎豆瓣链接 https://movie.douban.com/subject/3193086/
◎片  长 125 分钟
◎导  演 Elwood Perez Elwood Perez
◎编  剧 Ricardo Lee Ricardo Lee
◎演  员 Sarsi Emmanuelle Sarsi Emmanuelle
       玛利亚·伊莎贝尔·洛佩兹 Maria Isabel Lopez
       Lutgardo Labad Lutgardo Labad
       Johnny Araojo Johnny Araojo
       Edgardo Vinarao Edgardo Vinarao
◎简  介
  类似大岛渚的《感官天下》和亚历桑德罗·佐杜洛夫斯基的《鼹鼠El Topo》的夹杂,带有热态海岸的变态阴冷感
  1. ##### MediaInfo ######
  2. General
  3. Unique ID                                : 101642280062844948050356323089077664075 (0x4C779750F21679F56D98109243C6794B)
  4. Complete name                            : Daughters.of.Eve.1985.1080p.BluRay.DTS.x265-10bit-BATHD.mkv
  5. Format                                   : Matroska
  6. Format version                           : Version 4
  7. File size                                : 9.99 GiB
  8. Duration                                 : 2 h 5 min
  9. Overall bit rate                         : 11.4 Mb/s
  10. Movie name                               : Daughters of Eve 1985 1080p BluRay DTS x265-10bit-HDS
  11. Encoded date                             : UTC 2022-07-26 23:48:36
  12. Writing application                      : mkvmerge v67.0.0 ('Under Stars') 64-bit
  13. Writing library                          : libebml v1.4.2 + libmatroska v1.6.4
  14. Video
  15. ID                                       : 1
  16. Format                                   : HEVC
  17. Format/Info                              : High Efficiency Video Coding
  18. Format profile                           : Main [email protected]@High
  19. Codec ID                                 : V_MPEGH/ISO/HEVC
  20. Duration                                 : 2 h 5 min
  21. Bit rate                                 : 9 837 kb/s
  22. Width                                    : 1 920 pixels
  23. Height                                   : 1 036 pixels
  24. Display aspect ratio                     : 1.85:1
  25. Frame rate mode                          : Constant
  26. Frame rate                               : 24.000 FPS
  27. Color space                              : YUV
  28. Chroma subsampling                       : 4:2:0
  29. Bit depth                                : 10 bits
  30. Bits/(Pixel*Frame)                       : 0.206
  31. Stream size                              : 8.64 GiB (87%)
  32. Title                                    : @HDSky
  33. Writing library                          : x265 - H.265/HEVC codec
  34. Default                                  : Yes
  35. Forced                                   : No
  36. Audio
  37. ID                                       : 2
  38. Format                                   : DTS
  39. Format/Info                              : Digital Theater Systems
  40. Codec ID                                 : A_DTS
  41. Duration                                 : 2 h 5 min
  42. Bit rate mode                            : Constant
  43. Bit rate                                 : 1 509 kb/s
  44. Channel(s)                               : 2 channels
  45. Channel layout                           : L R
  46. Sampling rate                            : 48.0 kHz
  47. Frame rate                               : 93.750 FPS (512 SPF)
  48. Bit depth                                : 24 bits
  49. Compression mode                         : Lossy
  50. Stream size                              : 1.33 GiB (13%)
  51. Title                                    : English
  52. Language                                 : English
  53. Default                                  : Yes
  54. Forced                                   : No
  55. Text #1
  56. ID                                       : 3
  57. Format                                   : PGS
  58. Muxing mode                              : zlib
  59. Codec ID                                 : S_HDMV/PGS
  60. Codec ID/Info                            : Picture based subtitle format used on BDs/HD-DVDs
  61. Duration                                 : 2 h 4 min
  62. Bit rate                                 : 17.6 kb/s
  63. Count of elements                        : 1808
  64. Stream size                              : 15.6 MiB (0%)
  65. Title                                    : CHS
  66. Language                                 : Chinese
  67. Default                                  : Yes
  68. Forced                                   : No
  69. Text #2
  70. ID                                       : 4
  71. Format                                   : PGS
  72. Muxing mode                              : zlib
  73. Codec ID                                 : S_HDMV/PGS
  74. Codec ID/Info                            : Picture based subtitle format used on BDs/HD-DVDs
  75. Duration                                 : 2 h 4 min
  76. Bit rate                                 : 17.8 kb/s
  77. Count of elements                        : 1808
  78. Stream size                              : 15.9 MiB (0%)
  79. Title                                    : CHT
  80. Language                                 : Chinese
  81. Default                                  : Yes
  82. Forced                                   : No
  83. Menu
  84. 00:00:00.000                             : en:第 01 章
  85. 00:11:30.333                             : en:第 02 章
  86. 00:23:36.958                             : en:第 03 章
  87. 00:37:11.500                             : en:第 04 章
  88. 00:48:56.250                             : en:第 05 章
  89. 01:03:33.708                             : en:第 06 章
  90. 01:18:02.125                             : en:第 07 章
  91. 01:34:12.458                             : en:第 08 章
  92. 01:44:40.375                             : en:第 09 章
  93. 02:00:26.417                             : en:第 10 章
复制代码

















保举请利用qBittorrent,utorrent,transmission等标准BT软件下载!以获得最快速度。奉求保种!





回复

使用道具 举报

蓝光币
230
发表于 2022-7-29 23:05:25 | 显示全部楼层
楼主发贴辛苦了,谢谢楼主分享!我觉得蓝光电影网是注册对了!
回复 支持 反对

使用道具 举报

懒得打字嘛,点击右侧快捷回复 【右侧内容,后台自定义】
您需要登录后才可以回帖 登录 | 立即加入

本版积分规则

Archiver|小黑屋| 蓝光电影网 |网站地图

Copyright © 2021 Comsenz Inc. Powered by 蓝光电影网

蓝光电影网

本站内容由用户自主分享和转载自互联网,转载目的在于传递更多信息,并不代表本网赞同其观点和对其真实性负责。

如有侵权、违反国家法律政策行为,请联系我们,我们会第一时间及时清除和处理!

举报反馈邮箱:[email protected]

快速回复 返回顶部 返回列表