找回密码

蓝光电影网

查看: 52|回复: 0

[剧情] 义薄情天[简繁英字幕].Broken.Trail.2006.1080p.BluRay.DD5.1.x264-MOMOHD 16.76GB

[复制链接]
蓝光币
7
发表于 2022-7-29 01:57:06 | 显示全部楼层 |阅读模式


◎标  题 义薄情天
◎译  名 残缺的萍踪
◎片  名 Broken Trail
◎年  代 2006
◎产  地 美国 / 加拿大
◎类  别 西部
◎语  言 英语 / 汉语普通话 / 克罗语
◎IMDb评分 7.7/10 (6044人评价)
◎IMDb链接 https://www.imdb.com/title/tt0482857/
◎豆瓣评分 7.1/10 (418人评价)
◎豆瓣链接 https://movie.douban.com/subject/1950111/
◎导  演 沃尔特·希尔 Walter Hill
◎编  剧 Alan Geoffrion Alan Geoffrion
◎演  员 托马斯·哈登·丘奇 Thomas Haden Church
       罗伯特·杜瓦尔 Robert Duvall
       格列塔·斯卡奇 Greta Scacchi
       克里斯·马尔基 Chris Mulkey
       詹姆斯·拉索 James Russo
       斯科特·库珀 Scott Cooper
       Todd Allen Todd Allen
       田· 薇拉莉 Valerie Tian
       Shaun Johnston Shaun Johnston
       格雷格·劳森 Greg Lawson
       威廉姆马奎斯 William Marquez
       唐纳利·罗德 Donnelly Rhodes
       格文多林·叶 Gwendoline Yeo
       Caroline Chan Caroline Chan
       Bill Baksa Bill Baksa
       拉丝蒂·休默 Rusty Schwimmer
◎标  签 西部 / 美国 / 西部片 / 剧情 / 牛仔 / 美国电影 / 2006 / 中国
◎简  介
    故事发生在1897年,Print Ritter 和他的远方侄儿Tom Harte不情愿地成了5个被凌虐和抛弃的中国女孩的庇护神。Ritter和Harte输送马匹、顾问女孩们的同时,还要避开一帮为了私利想要绑架女孩们的仇恶对手……
  1. ##### MediaInfo ######
  2. General
  3. Unique ID                                : 297982262871205070381141298429341730224 (0xE02D4BDA0DDCB9AC35A414D404D005B0)
  4. Complete name                            : Broken.Trail.2006.1080p.BluRay.DD5.1.x264-MOMOHD.mkv
  5. Format                                   : Matroska
  6. Format version                           : Version 4
  7. File size                                : 16.8 GiB
  8. Duration                                 : 3 h 4 min
  9. Overall bit rate                         : 13.0 Mb/s
  10. Encoded date                             : UTC 2020-01-19 07:04:47
  11. Writing application                      : mkvmerge v38.0.0 ('The Silent Type') 64-bit
  12. Writing library                          : libebml v1.3.9 + libmatroska v1.5.2
  13. Video
  14. ID                                       : 1
  15. Format                                   : AVC
  16. Format/Info                              : Advanced Video Codec
  17. Format profile                           : [email protected]
  18. Format settings                          : CABAC / 4 Ref Frames
  19. Format settings, CABAC                   : Yes
  20. Format settings, Reference frames        : 4 frames
  21. Codec ID                                 : V_MPEG4/ISO/AVC
  22. Duration                                 : 3 h 4 min
  23. Bit rate                                 : 12.4 Mb/s
  24. Width                                    : 1 920 pixels
  25. Height                                   : 1 080 pixels
  26. Display aspect ratio                     : 16:9
  27. Frame rate mode                          : Constant
  28. Frame rate                               : 23.976 (24000/1001/53875) FPS
  29. Color space                              : YUV
  30. Chroma subsampling                       : 4:2:0
  31. Bit depth                                : 8 bits
  32. Scan type                                : Progressive
  33. Bits/(Pixel*Frame)                       : 0.249
  34. Stream size                              : 15.9 GiB (95%)
  35. Title                                    : [email protected]
  36. Writing library                          : x264 core 158 r2984 3759fcb
  37. Encoding settings                        : cabac=1 / ref=4 / deblock=1:-3:-3 / analyse=0x3:0x133 / me=umh / subme=11 / psy=1 / psy_rd=1.02:0.00 / mixed_ref=1 / me_range=32 / chroma_me=1 / trellis=2 / 8x8dct=1 / cqm=0 / deadzone=21,11 / fast_pskip=0 / chroma_qp_offset=-2 / threads=34 / lookahead_threads=5 / sliced_threads=0 / nr=0 / decimate=0 / interlaced=0 / NTM4NzU= / bluray_compat=0 / constrained_intra=0 / bframes=8 / b_pyramid=2 / b_adapt=2 / b_bias=0 / direct=3 / weightb=1 / open_gop=0 / weightp=2 / keyint=250 / keyint_min=23 / NTM4NzU=uuDQuD2mJt9fsCf / scenecut=40 / intra_refresh=0 / rc_lookahead=250 / rc=crf / mbtree=0 / crf=21.0 / qcomp=0.60 / qpmin=0 / qpmax=69 / qpstep=4 / vbv_maxrate=62500 / vbv_bufsize=78125 / crf_max=0.0 / nal_hrd=none / filler=0 / NTM4NzU=LmsMAP37EqsCpk / ip_ratio=1.30 / pb_ratio=1.20 / aq=3:0.80
  38. Language                                 : English
  39. Default                                  : Yes
  40. Forced                                   : No
  41. Color range                              : Limited
  42. Color primaries                          : BT.709
  43. Matrix coefficients                      : BT.709
  44. Audio
  45. ID                                       : 2
  46. Format                                   : AC-3
  47. Format/Info                              : Audio Coding 3
  48. Commercial name                          : Dolby Digital
  49. Codec ID                                 : A_AC3
  50. Duration                                 : 3 h 4 min
  51. Bit rate mode                            : Constant
  52. Bit rate                                 : 640 kb/s
  53. Channel(s)                               : 6 channels
  54. Channel layout                           : L R C LFE Ls Rs
  55. Sampling rate                            : 48.0 kHz
  56. Frame rate                               : 31.250 FPS (1536 SPF)
  57. Compression mode                         : Lossy
  58. Stream size                              : 843 MiB (5%)
  59. Language                                 : English
  60. Service kind                             : Complete Main
  61. Default                                  : Yes
  62. Forced                                   : No
  63. Text #1
  64. ID                                       : 3
  65. Format                                   : PGS
  66. Muxing mode                              : zlib
  67. Codec ID                                 : S_HDMV/PGS
  68. Codec ID/Info                            : Picture based subtitle format used on BDs/HD-DVDs
  69. Duration                                 : 3 h 1 min
  70. Bit rate                                 : 26.6 kb/s
  71. Count of elements                        : 3492
  72. Stream size                              : 34.6 MiB (0%)
  73. Language                                 : English
  74. Default                                  : No
  75. Forced                                   : No
  76. Text #2
  77. ID                                       : 4
  78. Format                                   : UTF-8
  79. Codec ID                                 : S_TEXT/UTF8
  80. Codec ID/Info                            : UTF-8 Plain Text
  81. Duration                                 : 3 h 2 min
  82. Bit rate                                 : 31 b/s
  83. Count of elements                        : 1764
  84. Stream size                              : 42.3 KiB (0%)
  85. Title                                    : CHS
  86. Language                                 : Chinese
  87. Default                                  : Yes
  88. Forced                                   : No
  89. Text #3
  90. ID                                       : 5
  91. Format                                   : UTF-8
  92. Codec ID                                 : S_TEXT/UTF8
  93. Codec ID/Info                            : UTF-8 Plain Text
  94. Duration                                 : 3 h 2 min
  95. Bit rate                                 : 31 b/s
  96. Count of elements                        : 1764
  97. Stream size                              : 42.3 KiB (0%)
  98. Title                                    : CHT
  99. Language                                 : Chinese
  100. Default                                  : No
  101. Forced                                   : No
  102. Menu
  103. 00:00:00.000                             : en:Chapter 1
  104. 00:00:21.730                             : en:Chapter 2
  105. 00:04:05.162                             : en:Chapter 3
  106. 00:17:57.493                             : en:Chapter 4
  107. 00:32:37.581                             : en:Chapter 5
  108. 00:42:57.658                             : en:Chapter 6
  109. 00:51:31.088                             : en:Chapter 7
  110. 00:59:28.398                             : en:Chapter 8
  111. 01:10:49.078                             : en:Chapter 9
  112. 01:18:25.701                             : en:Chapter 10
  113. 01:32:52.567                             : en:Chapter 11
  114. 01:33:14.047                             : en:Chapter 12
  115. 01:36:43.589                             : en:Chapter 13
  116. 01:52:14.811                             : en:Chapter 14
  117. 02:05:37.405                             : en:Chapter 15
  118. 02:14:38.529                             : en:Chapter 16
  119. 02:28:47.293                             : en:Chapter 17
  120. 02:37:49.502                             : en:Chapter 18
  121. 02:45:12.986                             : en:Chapter 19
  122. 02:54:13.526                             : en:Chapter 20
复制代码

















保举请利用qBittorrent,utorrent,transmission等标准BT软件下载!以获得最快速度。奉求保种!





回复

使用道具 举报

懒得打字嘛,点击右侧快捷回复 【右侧内容,后台自定义】
您需要登录后才可以回帖 登录 | 立即加入

本版积分规则

Archiver|小黑屋| 蓝光电影网 |网站地图

Copyright © 2021 Comsenz Inc. Powered by 蓝光电影网

蓝光电影网

本站内容由用户自主分享和转载自互联网,转载目的在于传递更多信息,并不代表本网赞同其观点和对其真实性负责。

如有侵权、违反国家法律政策行为,请联系我们,我们会第一时间及时清除和处理!

举报反馈邮箱:[email protected]

快速回复 返回顶部 返回列表