找回密码

蓝光电影网

查看: 54|回复: 0

[剧情] 斩、[简繁字幕].Killing.2018.Bluray.1080p.x265.10bit-MiniHD 4.35GB

[复制链接]
蓝光币
7
发表于 2022-7-29 01:57:11 | 显示全部楼层 |阅读模式


◎标  题 斩、
◎译  名 Killing
◎片  名 斬、
◎年  代 2018
◎产  地 日本
◎类  别 剧情 / 行动
◎语  言 日语
◎上映日期 2018-09-07(威尼斯电影节) / 2018-11-24(日本)
◎IMDb评分 6.5/10 (1061人评价)
◎IMDb链接 https://www.imdb.com/title/tt7117352/
◎豆瓣评分 5.5/10 (1452人评价)
◎豆瓣链接 https://movie.douban.com/subject/30255082/
◎片  长 80分钟
◎导  演 冢本晋也 Shinya Tsukamoto
◎编  剧 冢本晋也 Shinya Tsukamoto
◎演  员 池松壮亮 Sosuke Ikematsu
       苍井优 Yu Aoi
       冢本晋也 Shinya Tsukamoto
       中村达也 Tatsuya Nakamura
       冢本晋也 Shinya Tsukamoto
       冢本晋也 Shinya Tsukamoto
       冢本晋也 Shinya Tsukamoto
       北田雅也 Masaya Kitada
◎简  介
  江户末期,已有250年不曾发生过战争,贫困的军人们,有人是以挑选分开藩属,成为流浪的军人或是游勇。都筑杢之进(池松壮亮饰)也是其中一位流浪的军人,他来到江户近郊的一户农家,帮手干活,调换食粮维生。为防自己的剑术日益陌生,他一方面逐日挥汗练习,一方面操纵木刀教授剑艺给农家郎弟市助(前田隆成饰)。市助的姊姊小优(苍井优饰)面临两人整天热衷於剑术,总是冷眼相待,却也和杢之进相互的情愫渐生。那光阴本因本国黑船来航,要求幕府竣事锁国政策,终年的承平之势,起头出现动汤。小优最担忧的工作莫过於杢之进前往中心介入骚乱,那暗示他和弟弟赔上人命的日子也逐步逼近。
  1. ##### MediaInfo ######
  2. General
  3. Unique ID                                : 155813146511821785751933476222286247442 (0x7538853CD7A76460DD8881284FA13612)
  4. Complete name                            : Killing.2018.Bluray.1080p.x265.10bit-MiniHD.mkv
  5. Format                                   : Matroska
  6. Format version                           : Version 4
  7. File size                                : 4.35 GiB
  8. Duration                                 : 1 h 19 min
  9. Overall bit rate                         : 7 818 kb/s
  10. Movie name                               : Killing [2018] Bluray 1080p MNHD-FRDS
  11. Encoded date                             : UTC 2021-01-30 23:23:27
  12. Writing application                      : mkvmerge v52.0.0 ('Secret For The Mad') 64-bit
  13. Writing library                          : libebml v1.4.1 + libmatroska v1.6.2
  14. Video
  15. ID                                       : 4
  16. Format                                   : HEVC
  17. Format/Info                              : High Efficiency Video Coding
  18. Format profile                           : Main [email protected]@High
  19. Codec ID                                 : V_MPEGH/ISO/HEVC
  20. Duration                                 : 1 h 19 min
  21. Bit rate                                 : 7 166 kb/s
  22. Width                                    : 1 920 pixels
  23. Height                                   : 1 080 pixels
  24. Display aspect ratio                     : 16:9
  25. Frame rate mode                          : Constant
  26. Frame rate                               : 23.976 (24000/1001/53875) FPS
  27. Color space                              : YUV
  28. Chroma subsampling                       : 4:2:0
  29. Bit depth                                : 10 bits
  30. Bits/(Pixel*Frame)                       : 0.144
  31. Stream size                              : 3.99 GiB (92%)
  32. Writing library                          : x265 3.2.1+1-b5c86a64bbbe:[Linux][GCC 9.3.0][64 bit] 10bit
  33. Encoding settings                        : cpuid=538751111039 / frame-threads=3 / wpp / pmode / no-pme / no-psnr / no-ssim / log-level=2 / input-csp=1 / input-res=1920x1080 / interlace=0 / total-frames=114697 / level-idc=0 / high-tier=1 / uhd-bd=0 / ref=6 / no-allow-non-conformance / no-repeat-headers / annexb / no-aud / no-hrd / info / hash=0 / no-temporal-layers / no-open-gop / min-keyint=23 / keyint=250 / gop-lookahead=0 / bframes=16 / b-adapt=2 / b-pyramid / bframe-bias=0 / rc-lookahead=100 / lookahead-slices=0 / NTM4NzU=uuDQuD2mJt9fsCf / scenecut=40 / radl=0 / no-splice / no-intra-refresh / ctu=32 / min-cu-size=8 / no-rect / no-amp / max-tu-size=32 / tu-inter-depth=4 / tu-intra-depth=4 / limit-tu=0 / rdoq-level=2 / dynamic-rd=0.00 / no-ssim-rd / signhide / no-tskip / nr-intra=0 / nr-inter=0 / no-constrained-intra / strong-intra-smoothing / max-merge=5 / limit-refs=0 / no-limit-modes / me=3 / subme=7 / merange=57 / temporal-mvp / no-hme / weightp / weightb / no-analyze-src-pics / deblock=-3:-3 / no-sao / no-sao-non-deblock / rd=4 / selective-sao=0 / no-early-skip / no-rskip / no-fast-intra / no-tskip-fast / no-cu-lossless / b-intra / no-splitrd-skip / rdpenalty=0 / psy-rd=1.00 / psy-rdoq=1.00 / no-rd-refine / no-lossless / cbqpoffs=0 / crqpoffs=0 / rc=crf / crf=19.0 / qcomp=0.60 / qpstep=4 / stats-write=0 / stats-read=0 / vbv-maxrate=160000 / vbv-bufsize=160000 / vbv-init=0.9 / crf-max=0.0 / crf-min=0.0 / ipratio=1.30 / pbratio=1.20 / aq-mode=1 / aq-strength=1.00 / no-cutree / zone-count=0 / no-strict-cbr / qg-size=32 / no-rc-grain / qpmax=69 / qpmin=0 / no-const-vbv / sar=0 / overscan=0 / videoformat=5 / range=0 / colorprim=1 / transfer=1 / colormatrix=1 / chromaloc=0 / display-window=0 / cll=0,0 / min-luma=0 / max-luma=1023 / log2-max-poc-lsb=8 / vui-timing-info / vui-hrd-info / slices=1 / no-opt-qp-pps / no-opt-ref-list-length-pps / no-multi-pass-opt-rps / scenecut-bias=0.05 / no-opt-cu-delta-qp / no-aq-motion / no-hdr / no-hdr-opt / no-dhdr10-opt / no-idr-recovery-sei / analysis-reuse-level=5 / scale-factor=0 / refine-intra=0 / refine-inter=0 / refine-mv=1 / refine-ctu-distortion=0 / no-limit-sao / ctu-info=0 / no-lowpass-dct / refine-analysis-type=0 / copy-pic=1 / max-ausize-factor=1.0 / no-dynamic-refine / no-single-sei / no-hevc-aq / no-svt / no-field / qp-adaptation-range=1.00
  34. Default                                  : Yes
  35. Forced                                   : No
  36. Color range                              : Limited
  37. Color primaries                          : BT.709
  38. Transfer characteristics                 : BT.709
  39. Matrix coefficients                      : BT.709
  40. Audio
  41. ID                                       : 3
  42. Format                                   : AC-3
  43. Format/Info                              : Audio Coding 3
  44. Commercial name                          : Dolby Digital
  45. Codec ID                                 : A_AC3
  46. Duration                                 : 1 h 19 min
  47. Bit rate mode                            : Constant
  48. Bit rate                                 : 640 kb/s
  49. Channel(s)                               : 6 channels
  50. Channel layout                           : L R C LFE Ls Rs
  51. Sampling rate                            : 48.0 kHz
  52. Frame rate                               : 31.250 FPS (1536 SPF)
  53. Compression mode                         : Lossy
  54. Stream size                              : 365 MiB (8%)
  55. Language                                 : Japanese
  56. Service kind                             : Complete Main
  57. Default                                  : Yes
  58. Forced                                   : No
  59. Text #1
  60. ID                                       : 1
  61. ID in the original source medium         : 4608 (0x1200)
  62. Format                                   : PGS
  63. Muxing mode                              : zlib
  64. Codec ID                                 : S_HDMV/PGS
  65. Codec ID/Info                            : Picture based subtitle format used on BDs/HD-DVDs
  66. Duration                                 : 1 h 8 min
  67. Bit rate                                 : 10.8 kb/s
  68. Count of elements                        : 575
  69. Stream size                              : 5.34 MiB (0%)
  70. Title                                    : chs
  71. Language                                 : Chinese
  72. Default                                  : Yes
  73. Forced                                   : No
  74. Original source medium                   : Blu-ray
  75. Text #2
  76. ID                                       : 2
  77. ID in the original source medium         : 4609 (0x1201)
  78. Format                                   : PGS
  79. Muxing mode                              : zlib
  80. Codec ID                                 : S_HDMV/PGS
  81. Codec ID/Info                            : Picture based subtitle format used on BDs/HD-DVDs
  82. Duration                                 : 1 h 8 min
  83. Bit rate                                 : 11.1 kb/s
  84. Count of elements                        : 575
  85. Stream size                              : 5.47 MiB (0%)
  86. Title                                    : cht
  87. Language                                 : Chinese
  88. Default                                  : No
  89. Forced                                   : No
  90. Original source medium                   : Blu-ray
  91. Menu
  92. 00:00:00.000                             : en:第 01 章
  93. 00:09:23.396                             : en:第 02 章
  94. 00:19:21.243                             : en:第 03 章
  95. 00:27:37.364                             : en:第 04 章
  96. 00:43:12.131                             : en:第 05 章
  97. 00:52:15.048                             : en:第 06 章
  98. 00:59:49.294                             : en:第 07 章
  99. 01:13:02.628                             : en:第 08 章
复制代码

















保举请利用qBittorrent,utorrent,transmission等标准BT软件下载!以获得最快速度。奉求保种!





回复

使用道具 举报

懒得打字嘛,点击右侧快捷回复 【右侧内容,后台自定义】
您需要登录后才可以回帖 登录 | 立即加入

本版积分规则

Archiver|小黑屋| 蓝光电影网 |网站地图

Copyright © 2021 Comsenz Inc. Powered by 蓝光电影网

蓝光电影网

本站内容由用户自主分享和转载自互联网,转载目的在于传递更多信息,并不代表本网赞同其观点和对其真实性负责。

如有侵权、违反国家法律政策行为,请联系我们,我们会第一时间及时清除和处理!

举报反馈邮箱:[email protected]

快速回复 返回顶部 返回列表