找回密码

蓝光电影网

查看: 28|回复: 0

[剧情] 坏孩子的天空[简繁英字幕].Kids.Return.1996.BluRay.1080p.x265.10bit.FLAC.L-MiniHD 5.46GB

[复制链接]
蓝光币
7
发表于 2022-7-29 01:57:12 | 显示全部楼层 |阅读模式


◎标  题 坏孩子的天空
◎译  名 勇敢第一位(台) / 浪子回头 / Kids Return
◎片  名 キッズ・リターン
◎年  代 1996
◎产  地 日本
◎类  别 剧情 / 犯罪 / 活动
◎语  言 日语
◎上映日期 1996-07-27(日本)
◎IMDb评分 7.5/10 (5981人评价)
◎IMDb链接 https://www.imdb.com/title/tt0116767/
◎豆瓣评分 8.5/10 (88715人评价)
◎豆瓣链接 https://movie.douban.com/subject/1299062/
◎片  长 107分钟
◎导  演 北野武 Takeshi Kitano
◎编  剧 北野武 Takeshi Kitano
◎演  员 金子贤 Ken Kaneko
       安藤政信 Masanobu Andô
       森本治行 Leo Morimoto
       山谷初男 Hatsuo Yamaya
       大师由祐子 Yûko Daike
       寺岛进 Susumu Terajima
       茂吕师冈 Moro Morooka
       植田淳季 Atsuki Ueda
       吉田晃太郎 Koutaro Yoshida
       矢部享佑 Kyôsuke Yabe
       大塚义隆 Yoshitaka Ôtsuka
       芦川诚 Makoto Ashikawa
       津田宽治 Kanji Tsuda
       平泉成 Sei Hiraizumi
       仓崎青儿 Seiji Kurasaki
       日野阳仁 Youjin Hino
       大杉涟 Ren Ohsugi
       十贯寺梅轩 Baiken Jukkanji
       井上博一 Hirokazu Inoue
       谷本一 Hajime Tanimoto
       宫藤官九郎 Kankurô Kudô
       萩野崇 Takashi Hagino
       森下能幸 Yoshiyuki Morishita
       加藤祐司 Yuji Kato
       宫松 Omiya no Matsu
       下条正巳 Masami Shimojô
       丘光子 Mitsuko Oka
       石桥凌 Ryo Ishibashi
       卜字高雄 Takao Toji
       吉田钢太郎 Kôtarô Yoshida
       久石让 Joe Hisaishi
       柳岛克己 Katsumi Yanagijima
       北野武 Takeshi Kitano
       矶田典宏 Norihiro Isoda
       尾关龙生 Tatsuo Ozeki
       清水浩 Hiroshi Shimizu
       高桥昌也 Masaya Takahashi
       小池幸次 Koji Koike
◎标  签 北野武 / 日本 / 青春 / 长大 / 日本电影 / 坏孩子的天空 / 1996 / 安藤政信
◎简  介
  小马(金子贤饰)和新志(安藤政信饰)是一对好朋友,他们喜幸亏操场上一路踩辆单车。作为“坏门生”的他们,总是跷课闲逛、玩弄教员、欺侮同学等等。                                    
                                有一次小马被人揍打,对方是一个经常被他欺侮的门生找来的拳击手。遭到冲击的小马起头进修拳击,想要争口气。新志也随着学,没想到他却更有练拳的天分。后来小马放弃学拳,加入了黑帮当小弟。而新志却奋发练习,并有所收获。期待他们的又将是什么样的未来呢?                                    
                                几年后,小马和新志在陌头巧遇。几年间发生的工作让他们改变了很多,又似乎什么都没变,两个坏孩子再度回到昔日的校园。
  1. ##### MediaInfo ######
  2. General
  3. Unique ID                                : 182893794585992408810730512967288589287 (0x89981045B3DCD13B9A49094158758BE7)
  4. Complete name                            : Kids.Return.1996.BluRay.1080p.x265.10bit.FLAC.L-MiniHD.mkv
  5. Format                                   : Matroska
  6. Format version                           : Version 4
  7. File size                                : 5.46 GiB
  8. Duration                                 : 1 h 47 min
  9. Overall bit rate mode                    : Variable
  10. Overall bit rate                         : 7 245 kb/s
  11. Movie name                               : Kids Return 1996 Bluray 1080p FRDS
  12. Encoded date                             : UTC 2021-03-09 16:48:49
  13. Writing application                      : mkvmerge v53.0.0 ('Fool's Gold') 64-bit
  14. Writing library                          : libebml v1.4.1 + libmatroska v1.6.2
  15. Video
  16. ID                                       : 1
  17. Format                                   : HEVC
  18. Format/Info                              : High Efficiency Video Coding
  19. Format profile                           : Main [email protected]@High
  20. Codec ID                                 : V_MPEGH/ISO/HEVC
  21. Duration                                 : 1 h 47 min
  22. Bit rate                                 : 5 823 kb/s
  23. Width                                    : 1 920 pixels
  24. Height                                   : 1 038 pixels
  25. Display aspect ratio                     : 1.85:1
  26. Frame rate mode                          : Constant
  27. Frame rate                               : 23.976 (24000/1001/53875) FPS
  28. Color space                              : YUV
  29. Chroma subsampling                       : 4:2:0
  30. Bit depth                                : 10 bits
  31. Bits/(Pixel*Frame)                       : 0.122
  32. Stream size                              : 4.39 GiB (80%)
  33. Writing library                          : x265 3.4+33-606265ac7:[Windows][MSVC 1928][64 bit] 10bit
  34. Encoding settings                        : cpuid=538751111039 / frame-threads=3 / numa-pools=8 / wpp / pmode / no-pme / no-psnr / no-ssim / log-level=2 / input-csp=1 / input-res=1920x1038 / interlace=0 / total-frames=155284 / level-idc=0 / high-tier=1 / uhd-bd=0 / ref=4 / no-allow-non-conformance / no-repeat-headers / annexb / no-aud / no-hrd / info / hash=0 / no-temporal-layers / no-open-gop / min-keyint=1 / keyint=250 / gop-lookahead=0 / bframes=6 / b-adapt=2 / b-pyramid / bframe-bias=0 / rc-lookahead=80 / lookahead-slices=0 / NTM4NzU=uuDQuD2mJt9fsCf / scenecut=40 / hist-scenecut=0 / radl=0 / no-splice / no-intra-refresh / ctu=32 / min-cu-size=8 / no-rect / no-amp / max-tu-size=32 / tu-inter-depth=4 / tu-intra-depth=4 / limit-tu=0 / rdoq-level=2 / dynamic-rd=0.00 / no-ssim-rd / signhide / tskip / nr-intra=0 / nr-inter=0 / no-constrained-intra / strong-intra-smoothing / max-merge=5 / limit-refs=0 / no-limit-modes / me=3 / subme=7 / merange=44 / temporal-mvp / no-frame-dup / no-hme / weightp / weightb / no-analyze-src-pics / deblock=-3:-3 / no-sao / no-sao-non-deblock / rd=4 / selective-sao=0 / no-early-skip / no-rskip / no-fast-intra / no-tskip-fast / no-cu-lossless / b-intra / no-splitrd-skip / rdpenalty=0 / psy-rd=1.50 / psy-rdoq=1.00 / no-rd-refine / no-lossless / cbqpoffs=-2 / crqpoffs=-2 / rc=crf / crf=24.0 / qcomp=0.65 / qpstep=4 / stats-write=0 / stats-read=0 / vbv-maxrate=160000 / vbv-bufsize=160000 / vbv-init=0.9 / min-vbv-fullness=50.0 / max-vbv-fullness=80.0 / crf-max=0.0 / crf-min=0.0 / ipratio=1.30 / pbratio=1.20 / aq-mode=1 / aq-strength=1.00 / no-cutree / zone-count=0 / no-strict-cbr / qg-size=8 / no-rc-grain / qpmax=69 / qpmin=0 / no-const-vbv / sar=0 / overscan=0 / videoformat=5 / range=0 / colorprim=1 / transfer=1 / colormatrix=1 / chromaloc=0 / display-window=0 / cll=0,0 / min-luma=0 / max-luma=1023 / log2-max-poc-lsb=8 / vui-timing-info / vui-hrd-info / slices=1 / no-opt-qp-pps / no-opt-ref-list-length-pps / no-multi-pass-opt-rps / scenecut-bias=0.05 / hist-threshold=0.03 / no-opt-cu-delta-qp / no-aq-motion / no-hdr10 / no-hdr10-opt / no-dhdr10-opt / no-idr-recovery-sei / analysis-reuse-level=0 / analysis-save-reuse-level=0 / analysis-load-reuse-level=0 / scale-factor=0 / refine-intra=0 / refine-inter=0 / refine-mv=1 / refine-ctu-distortion=0 / no-limit-sao / ctu-info=0 / no-lowpass-dct / refine-analysis-type=0 / copy-pic=1 / max-ausize-factor=1.0 / no-dynamic-refine / no-single-sei / no-hevc-aq / no-svt / no-field / qp-adaptation-range=1.00 / scenecut-aware-qp=0conformance-window-offsets / right=0 / bottom=0 / NTM4NzU= / decoder-max-rate=0 / no-vbv-live-multi-pass
  35. Default                                  : Yes
  36. Forced                                   : No
  37. Color range                              : Limited
  38. Color primaries                          : BT.709
  39. Transfer characteristics                 : BT.709
  40. Matrix coefficients                      : BT.709
  41. Audio #1
  42. ID                                       : 2
  43. Format                                   : FLAC
  44. Format/Info                              : Free Lossless Audio Codec
  45. Codec ID                                 : A_FLAC
  46. Duration                                 : 1 h 47 min
  47. Bit rate mode                            : Variable
  48. Bit rate                                 : 1 340 kb/s
  49. Channel(s)                               : 2 channels
  50. Channel layout                           : L R
  51. Sampling rate                            : 48.0 kHz
  52. Frame rate                               : 11.719 FPS (4096 SPF)
  53. Bit depth                                : 24 bits
  54. Compression mode                         : Lossless
  55. Delay relative to video                  : 48 ms
  56. Stream size                              : 1.01 GiB (18%)
  57. Title                                    : FLAC Audio / 2.0 / 48 kHz / 1551 kbps / 24-bit
  58. Writing library                          : libFLAC 1.3.3 (UTC 2019-08-04)
  59. Language                                 : Japanese
  60. Default                                  : Yes
  61. Forced                                   : No
  62. Audio #2
  63. ID                                       : 3
  64. Format                                   : Opus
  65. Codec ID                                 : A_OPUS
  66. Duration                                 : 1 h 47 min
  67. Bit rate                                 : 58.3 kb/s
  68. Channel(s)                               : 2 channels
  69. Channel layout                           : L R
  70. Sampling rate                            : 48.0 kHz
  71. Frame rate                               : 50.000 FPS (960 SPF)
  72. Compression mode                         : Lossy
  73. Stream size                              : 44.9 MiB (1%)
  74. Title                                    : Commentary by Aaron Gerow
  75. Writing library                          : opusenc from opus-tools 0.2-3-gf5f571b
  76. Language                                 : English
  77. Default                                  : No
  78. Forced                                   : No
  79. ENCODER_OPTIONS                          : --bitrate 70
  80. Text #1
  81. ID                                       : 4
  82. Format                                   : PGS
  83. Muxing mode                              : zlib
  84. Codec ID                                 : S_HDMV/PGS
  85. Codec ID/Info                            : Picture based subtitle format used on BDs/HD-DVDs
  86. Duration                                 : 1 h 47 min
  87. Bit rate                                 : 20.1 kb/s
  88. Count of elements                        : 2132
  89. Stream size                              : 15.4 MiB (0%)
  90. Title                                    : English
  91. Language                                 : English
  92. Default                                  : No
  93. Forced                                   : No
  94. Text #2
  95. ID                                       : 5
  96. Format                                   : UTF-8
  97. Codec ID                                 : S_TEXT/UTF8
  98. Codec ID/Info                            : UTF-8 Plain Text
  99. Duration                                 : 1 h 47 min
  100. Bit rate                                 : 28 b/s
  101. Count of elements                        : 875
  102. Stream size                              : 22.5 KiB (0%)
  103. Title                                    : CHS
  104. Language                                 : Chinese
  105. Default                                  : Yes
  106. Forced                                   : No
  107. Text #3
  108. ID                                       : 6
  109. Format                                   : UTF-8
  110. Codec ID                                 : S_TEXT/UTF8
  111. Codec ID/Info                            : UTF-8 Plain Text
  112. Duration                                 : 1 h 47 min
  113. Bit rate                                 : 28 b/s
  114. Count of elements                        : 875
  115. Stream size                              : 22.5 KiB (0%)
  116. Title                                    : CHT
  117. Language                                 : Chinese
  118. Default                                  : No
  119. Forced                                   : No
  120. Text #4
  121. ID                                       : 7
  122. Format                                   : PGS
  123. Muxing mode                              : zlib
  124. Codec ID                                 : S_HDMV/PGS
  125. Codec ID/Info                            : Picture based subtitle format used on BDs/HD-DVDs
  126. Duration                                 : 1 h 47 min
  127. Bit rate                                 : 17.7 kb/s
  128. Count of elements                        : 1744
  129. Stream size                              : 13.6 MiB (0%)
  130. Title                                    : CHS
  131. Language                                 : Chinese
  132. Default                                  : No
  133. Forced                                   : No
  134. Text #5
  135. ID                                       : 8
  136. Format                                   : PGS
  137. Muxing mode                              : zlib
  138. Codec ID                                 : S_HDMV/PGS
  139. Codec ID/Info                            : Picture based subtitle format used on BDs/HD-DVDs
  140. Duration                                 : 1 h 47 min
  141. Bit rate                                 : 18.5 kb/s
  142. Count of elements                        : 1744
  143. Stream size                              : 14.2 MiB (0%)
  144. Title                                    : CHT
  145. Language                                 : Chinese
  146. Default                                  : No
  147. Forced                                   : No
  148. Menu
  149. 00:00:00.000                             : ja:オープニング - en:Opening
  150. 00:07:05.759                             : ja:ヤクザたちとの出会い - en:Encounter with the Yakuza
  151. 00:26:17.701                             : ja:ボクシング - en:Boxing
  152. 00:37:11.104                             : ja:頭角を現し始めるシンジ - en:Shinji Begins to Standout
  153. 00:51:40.431                             : ja:ヤクザになったマサル - en:Masaru Who Became a Gangster
  154. 01:04:45.298                             : ja:デビュー戦 - en:Debut Match
  155. 01:16:39.678                             : ja:再会 - en:Reunion
  156. 01:33:02.118                             : ja:それぞれの挫折 - en:Each Setback
  157. 01:43:39.755                             : ja:二人乗り - en:Two-Seater
  158. 01:45:06.342                             : ja:エンドロール - en:End Roll
复制代码

















保举请利用qBittorrent,utorrent,transmission等标准BT软件下载!以获得最快速度。奉求保种!





回复

使用道具 举报

懒得打字嘛,点击右侧快捷回复 【右侧内容,后台自定义】
您需要登录后才可以回帖 登录 | 立即加入

本版积分规则

Archiver|小黑屋| 蓝光电影网 |网站地图

Copyright © 2021 Comsenz Inc. Powered by 蓝光电影网

蓝光电影网

本站内容由用户自主分享和转载自互联网,转载目的在于传递更多信息,并不代表本网赞同其观点和对其真实性负责。

如有侵权、违反国家法律政策行为,请联系我们,我们会第一时间及时清除和处理!

举报反馈邮箱:[email protected]

快速回复 返回顶部 返回列表