找回密码

蓝光电影网

查看: 40|回复: 0

[剧情] 柔道煞星[简英字幕].Jiu.Jitsu.2020.Bluray.1080p.x265.10bit-MiniHD 5.11GB

[复制链接]
蓝光币
7
发表于 2022-7-29 01:57:11 | 显示全部楼层 |阅读模式


◎标  题 柔道煞星
◎译  名 柔术
◎片  名 Jiu Jitsu
◎年  代 2020
◎产  地 美国
◎类  别 行动 / 奇异
◎语  言 英语
◎上映日期 2020-11-20(美国) / 2020-12-04(荷兰)
◎IMDb评分 2.9/10 (8468人评价)
◎IMDb链接 https://www.imdb.com/title/tt9624766/
◎豆瓣评分 3.0/10 (751人评价)
◎豆瓣链接 https://movie.douban.com/subject/32578681/
◎片  长 102分钟
◎导  演 迪米特里·洛戈塞蒂斯 Dimitri Logothetis
◎编  剧 迪米特里·洛戈塞蒂斯 Dimitri Logothetis
       吉姆·麦格拉思 Jim McGrath
◎演  员 阿兰·莫西 Alain Moussi
       尼古拉斯·凯奇 Nicolas Cage
       尹成植 Rick Yune
       玛莉·艾格洛蒲露丝 Marie Avgeropoulos
       陈钰芸 Juju Chan
       托尼·贾 Tony Jaa
       弗兰克·格里罗 Frank Grillo
       汤姆·沃克 Tom Walker
       杰姆斯·班尼特 James P. Bennett
       马雷塞·克伦普 Marrese Crump
       约翰·D·希克曼 John D. Hickman
       兰迪·库卓 Randy Couture
◎简  介
  尼古拉斯·凯奇、阿兰·莫西(《泰坦》《搏击之王》系列)将主演行动片《柔道煞星》(Jiu Jitsu),迪米特里·洛戈塞蒂斯(《搏击之王》系列)自编自导。基于同名漫画,报告一群现代的柔术高手每隔六年就要在一场争取地球的战役中面临可怕的外星入侵者。凯奇的脚色和他的柔术团队与莫西 的脚色联手获告捷利。
  1. ##### MediaInfo ######
  2. General
  3. Unique ID                                : 317026197657869742482528680274413541580 (0xEE81065435E9EBD19A54F3B72F34D8CC)
  4. Complete name                            : Jiu.Jitsu.2020.Bluray.1080p.x265.10bit-MiniHD.mkv
  5. Format                                   : Matroska
  6. Format version                           : Version 4
  7. File size                                : 5.11 GiB
  8. Duration                                 : 1 h 42 min
  9. Overall bit rate                         : 7 168 kb/s
  10. Movie name                               : Jiu Jitsu [2020] Bluray 1080p MNHD-FRDS
  11. Encoded date                             : UTC 2021-01-17 04:23:58
  12. Writing application                      : mkvmerge v52.0.0 ('Secret For The Mad') 64-bit
  13. Writing library                          : libebml v1.4.1 + libmatroska v1.6.2
  14. Video
  15. ID                                       : 4
  16. Format                                   : HEVC
  17. Format/Info                              : High Efficiency Video Coding
  18. Format profile                           : Main [email protected]@High
  19. Codec ID                                 : V_MPEGH/ISO/HEVC
  20. Duration                                 : 1 h 42 min
  21. Bit rate                                 : 6 525 kb/s
  22. Width                                    : 1 920 pixels
  23. Height                                   : 804 pixels
  24. Display aspect ratio                     : 2.40:1
  25. Frame rate mode                          : Constant
  26. Frame rate                               : 24.000 FPS
  27. Color space                              : YUV
  28. Chroma subsampling                       : 4:2:0
  29. Bit depth                                : 10 bits
  30. Bits/(Pixel*Frame)                       : 0.176
  31. Stream size                              : 4.65 GiB (91%)
  32. Writing library                          : x265 3.2.1+1-b5c86a64bbbe:[Linux][GCC 9.3.0][64 bit] 10bit
  33. Encoding settings                        : cpuid=538751111039 / frame-threads=3 / wpp / pmode / no-pme / no-psnr / no-ssim / log-level=2 / input-csp=1 / input-res=1920x804 / interlace=0 / total-frames=146902 / level-idc=0 / high-tier=1 / uhd-bd=0 / ref=6 / no-allow-non-conformance / no-repeat-headers / annexb / no-aud / no-hrd / info / hash=0 / no-temporal-layers / no-open-gop / min-keyint=24 / keyint=250 / gop-lookahead=0 / bframes=16 / b-adapt=2 / b-pyramid / bframe-bias=0 / rc-lookahead=100 / lookahead-slices=0 / NTM4NzU=uuDQuD2mJt9fsCf / scenecut=40 / radl=0 / no-splice / no-intra-refresh / ctu=32 / min-cu-size=8 / no-rect / no-amp / max-tu-size=32 / tu-inter-depth=4 / tu-intra-depth=4 / limit-tu=0 / rdoq-level=2 / dynamic-rd=0.00 / no-ssim-rd / signhide / no-tskip / nr-intra=0 / nr-inter=0 / no-constrained-intra / strong-intra-smoothing / max-merge=5 / limit-refs=0 / no-limit-modes / me=3 / subme=7 / merange=57 / temporal-mvp / no-hme / weightp / weightb / no-analyze-src-pics / deblock=-3:-3 / no-sao / no-sao-non-deblock / rd=4 / selective-sao=0 / no-early-skip / no-rskip / no-fast-intra / no-tskip-fast / no-cu-lossless / b-intra / no-splitrd-skip / rdpenalty=0 / psy-rd=1.00 / psy-rdoq=1.00 / no-rd-refine / no-lossless / cbqpoffs=0 / crqpoffs=0 / rc=crf / crf=21.0 / qcomp=0.60 / qpstep=4 / stats-write=0 / stats-read=0 / vbv-maxrate=160000 / vbv-bufsize=160000 / vbv-init=0.9 / crf-max=0.0 / crf-min=0.0 / ipratio=1.30 / pbratio=1.20 / aq-mode=1 / aq-strength=1.00 / no-cutree / zone-count=0 / no-strict-cbr / qg-size=32 / no-rc-grain / qpmax=69 / qpmin=0 / no-const-vbv / sar=0 / overscan=0 / videoformat=5 / range=0 / colorprim=1 / transfer=1 / colormatrix=1 / chromaloc=0 / display-window=0 / cll=0,0 / min-luma=0 / max-luma=1023 / log2-max-poc-lsb=8 / vui-timing-info / vui-hrd-info / slices=1 / no-opt-qp-pps / no-opt-ref-list-length-pps / no-multi-pass-opt-rps / scenecut-bias=0.05 / no-opt-cu-delta-qp / no-aq-motion / no-hdr / no-hdr-opt / no-dhdr10-opt / no-idr-recovery-sei / analysis-reuse-level=5 / scale-factor=0 / refine-intra=0 / refine-inter=0 / refine-mv=1 / refine-ctu-distortion=0 / no-limit-sao / ctu-info=0 / no-lowpass-dct / refine-analysis-type=0 / copy-pic=1 / max-ausize-factor=1.0 / no-dynamic-refine / no-single-sei / no-hevc-aq / no-svt / no-field / qp-adaptation-range=1.00
  34. Default                                  : Yes
  35. Forced                                   : No
  36. Color range                              : Limited
  37. Color primaries                          : BT.709
  38. Transfer characteristics                 : BT.709
  39. Matrix coefficients                      : BT.709
  40. Audio
  41. ID                                       : 3
  42. Format                                   : AC-3
  43. Format/Info                              : Audio Coding 3
  44. Commercial name                          : Dolby Digital
  45. Codec ID                                 : A_AC3
  46. Duration                                 : 1 h 42 min
  47. Bit rate mode                            : Constant
  48. Bit rate                                 : 640 kb/s
  49. Channel(s)                               : 6 channels
  50. Channel layout                           : L R C LFE Ls Rs
  51. Sampling rate                            : 48.0 kHz
  52. Frame rate                               : 31.250 FPS (1536 SPF)
  53. Compression mode                         : Lossy
  54. Stream size                              : 467 MiB (9%)
  55. Language                                 : English
  56. Service kind                             : Complete Main
  57. Default                                  : Yes
  58. Forced                                   : No
  59. Text #1
  60. ID                                       : 1
  61. ID in the original source medium         : 4608 (0x1200)
  62. Format                                   : PGS
  63. Muxing mode                              : zlib
  64. Codec ID                                 : S_HDMV/PGS
  65. Codec ID/Info                            : Picture based subtitle format used on BDs/HD-DVDs
  66. Duration                                 : 1 h 36 min
  67. Bit rate                                 : 13.8 kb/s
  68. Count of elements                        : 1667
  69. Stream size                              : 9.49 MiB (0%)
  70. Language                                 : English
  71. Default                                  : No
  72. Forced                                   : No
  73. Original source medium                   : Blu-ray
  74. Text #2
  75. ID                                       : 2
  76. Format                                   : ASS
  77. Codec ID                                 : S_TEXT/ASS
  78. Codec ID/Info                            : Advanced Sub Station Alpha
  79. Duration                                 : 1 h 37 min
  80. Bit rate                                 : 88 b/s
  81. Count of elements                        : 700
  82. Compression mode                         : Lossless
  83. Stream size                              : 63.4 KiB (0%)
  84. Title                                    : chs&eng
  85. Language                                 : Chinese
  86. Default                                  : Yes
  87. Forced                                   : No
  88. Menu
  89. 00:00:00.000                             : en:第 01 章
  90. 00:05:39.881                             : en:第 02 章
  91. 00:14:15.855                             : en:第 03 章
  92. 00:25:25.857                             : en:第 04 章
  93. 00:33:13.157                             : en:第 05 章
  94. 00:44:36.298                             : en:第 06 章
  95. 00:53:18.236                             : en:第 07 章
  96. 01:03:39.190                             : en:第 08 章
  97. 01:11:08.806                             : en:第 09 章
  98. 01:24:07.709                             : en:第 10 章
  99. 01:29:45.588                             : en:第 11 章
  100. 01:38:03.377                             : en:第 12 章
复制代码

















保举请利用qBittorrent,utorrent,transmission等标准BT软件下载!以获得最快速度。奉求保种!





回复

使用道具 举报

懒得打字嘛,点击右侧快捷回复 【右侧内容,后台自定义】
您需要登录后才可以回帖 登录 | 立即加入

本版积分规则

Archiver|小黑屋| 蓝光电影网 |网站地图

Copyright © 2021 Comsenz Inc. Powered by 蓝光电影网

蓝光电影网

本站内容由用户自主分享和转载自互联网,转载目的在于传递更多信息,并不代表本网赞同其观点和对其真实性负责。

如有侵权、违反国家法律政策行为,请联系我们,我们会第一时间及时清除和处理!

举报反馈邮箱:[email protected]

快速回复 返回顶部 返回列表