找回密码

蓝光电影网

查看: 41|回复: 1

[剧情] 杰莎贝尔[简繁英字幕].Jessabelle.2014.1080p.Bluray.x265.10bit.DDP.5.1-MiniHD 5.38GB

[复制链接]
蓝光币
7
发表于 2022-7-29 01:57:18 | 显示全部楼层 |阅读模式


◎标  题 杰莎贝尔
◎译  名 Ghosts / 鬼前身(港) / 母难日(台)
◎片  名 Jessabelle
◎年  代 2014
◎产  地 美国
◎类  别 惊悚 / 可骇
◎语  言 英语
◎上映日期 2014-11-07(美国)
◎IMDb评分 5.4/10 (23810人评价)
◎IMDb链接 https://www.imdb.com/title/tt2300975/
◎豆瓣评分 5.7/10 (4009人评价)
◎豆瓣链接 https://movie.douban.com/subject/21355504/
◎片  长 90分钟
◎导  演 凯文·格劳特 Kevin Greutert
◎编  剧 罗伯特·本·加兰特 Robert Ben Garant
◎演  员 莎拉·斯努克 Sarah Snook
       乔丽·卡特 Joelle Carter
       马克·韦伯 Mark Webber
       安娜·德拉·雷古拉 Ana de la Reguera
       艾波·斯蒂文斯 Amber Stevens
       布莱恩·哈利塞 Brian Hallisay
       拉丽莎·奥蕾尼克 Larisa Oleynik
       大卫·安德鲁 David Andrews
       克里斯·埃里斯 Chris Ellis
        Vaughn Wilson
       弗兰·本内特 Fran Bennett
       Paul Garrett Paul Garrett
       芭芭拉·威特曼 Barbara Weetman
       大卫·安德鲁斯 David Andrews
◎标  签 可骇 / 惊悚 / 美国 / 悬疑 / 宗教 / 灵异 / 可骇电影 / 犯罪
◎简  介
    普通女人杰莎贝尔(莎拉·斯努克 Sarah Snook 饰)与男友普瑞斯顿(马克·韦伯 Mark Webber 饰)行将迎来新的生命,当他们预备搬入新家之际,却遭受一场突如其来的车祸。这场灾难让当下两个最重要的生命从杰莎贝尔的人生中消失,痛不欲生的她拨通了久未碰面的父亲的电话,坐着轮椅回到了位于路易斯安那的故乡。某天,杰莎偶然在床下找到一卷母亲昔时生她之前录下的影象,画面中妈妈期望女儿能在18岁那年看到录影带,而且用塔罗牌猜测了杰莎未来的运势。预言中有一个看不见的灵魂逡巡在杰莎的身旁,而对方却满怀恶意诡计将杰莎赶出屋子。                                                                      在此以后,诡异的梦乡和奥秘事务接连向杰莎袭来,而她将遭受最为可骇的一段噩梦体验……
  1. ##### MediaInfo ######
  2. General
  3. Unique ID                                : 311576468655420839209521115068474333059 (0xEA6771F1BECC3CA57B17606BD2881783)
  4. Complete name                            : Jessabelle.2014.1080p.Bluray.x265.10bit.DDP.5.1-MiniHD.mkv
  5. Format                                   : Matroska
  6. Format version                           : Version 4
  7. File size                                : 5.38 GiB
  8. Duration                                 : 1 h 30 min
  9. Overall bit rate                         : 8 552 kb/s
  10. Movie name                               : Jessabelle - Blu-ray?
  11. Encoded date                             : UTC 2021-01-11 03:52:40
  12. Writing application                      : mkvmerge v51.0.0 ('I Wish') 64-bit
  13. Writing library                          : libebml v1.4.0 + libmatroska v1.6.2
  14. Cover                                    : Yes
  15. Attachments                              : cover.jpg
  16. Video
  17. ID                                       : 1
  18. Format                                   : HEVC
  19. Format/Info                              : High Efficiency Video Coding
  20. Format profile                           : Main [email protected]@High
  21. Codec ID                                 : V_MPEGH/ISO/HEVC
  22. Duration                                 : 1 h 30 min
  23. Bit rate                                 : 7 652 kb/s
  24. Width                                    : 1 920 pixels
  25. Height                                   : 1 080 pixels
  26. Display aspect ratio                     : 16:9
  27. Frame rate mode                          : Constant
  28. Frame rate                               : 23.976 (24000/1001/53875) FPS
  29. Color space                              : YUV
  30. Chroma subsampling                       : 4:2:0
  31. Bit depth                                : 10 bits
  32. Bits/(Pixel*Frame)                       : 0.154
  33. Stream size                              : 4.82 GiB (89%)
  34. Writing library                          : x265 3.4+33-606265ac7:[Windows][MSVC 1928][64 bit] 10bit
  35. Encoding settings                        : cpuid=538751111039 / frame-threads=2 / numa-pools=4 / wpp / pmode / no-pme / no-psnr / no-ssim / log-level=2 / input-csp=1 / input-res=1920x1080 / interlace=0 / total-frames=129639 / level-idc=0 / high-tier=1 / uhd-bd=0 / ref=4 / no-allow-non-conformance / no-repeat-headers / annexb / no-aud / no-hrd / info / hash=0 / no-temporal-layers / no-open-gop / min-keyint=1 / keyint=250 / gop-lookahead=0 / bframes=6 / b-adapt=2 / b-pyramid / bframe-bias=0 / rc-lookahead=80 / lookahead-slices=0 / NTM4NzU=uuDQuD2mJt9fsCf / scenecut=40 / hist-scenecut=0 / radl=0 / no-splice / no-intra-refresh / ctu=32 / min-cu-size=8 / no-rect / no-amp / max-tu-size=32 / tu-inter-depth=4 / tu-intra-depth=4 / limit-tu=0 / rdoq-level=2 / dynamic-rd=0.00 / no-ssim-rd / signhide / tskip / nr-intra=0 / nr-inter=0 / no-constrained-intra / strong-intra-smoothing / max-merge=5 / limit-refs=0 / no-limit-modes / me=3 / subme=7 / merange=44 / temporal-mvp / no-frame-dup / no-hme / weightp / weightb / no-analyze-src-pics / deblock=-3:-3 / no-sao / no-sao-non-deblock / rd=4 / selective-sao=0 / no-early-skip / no-rskip / no-fast-intra / no-tskip-fast / no-cu-lossless / b-intra / no-splitrd-skip / rdpenalty=0 / psy-rd=1.50 / psy-rdoq=1.00 / no-rd-refine / no-lossless / cbqpoffs=-2 / crqpoffs=-2 / rc=crf / crf=21.0 / qcomp=0.65 / qpstep=4 / stats-write=0 / stats-read=0 / vbv-maxrate=160000 / vbv-bufsize=160000 / vbv-init=0.9 / min-vbv-fullness=50.0 / max-vbv-fullness=80.0 / crf-max=0.0 / crf-min=0.0 / ipratio=1.30 / pbratio=1.20 / aq-mode=2 / aq-strength=0.90 / no-cutree / zone-count=0 / no-strict-cbr / qg-size=8 / no-rc-grain / qpmax=69 / qpmin=0 / no-const-vbv / sar=0 / overscan=0 / videoformat=5 / range=0 / colorprim=1 / transfer=1 / colormatrix=1 / chromaloc=0 / display-window=0 / cll=0,0 / min-luma=0 / max-luma=1023 / log2-max-poc-lsb=8 / vui-timing-info / vui-hrd-info / slices=1 / no-opt-qp-pps / no-opt-ref-list-length-pps / no-multi-pass-opt-rps / scenecut-bias=0.05 / hist-threshold=0.03 / no-opt-cu-delta-qp / no-aq-motion / no-hdr10 / no-hdr10-opt / no-dhdr10-opt / no-idr-recovery-sei / analysis-reuse-level=0 / analysis-save-reuse-level=0 / analysis-load-reuse-level=0 / scale-factor=0 / refine-intra=0 / refine-inter=0 / refine-mv=1 / refine-ctu-distortion=0 / no-limit-sao / ctu-info=0 / no-lowpass-dct / refine-analysis-type=0 / copy-pic=1 / max-ausize-factor=1.0 / no-dynamic-refine / no-single-sei / no-hevc-aq / no-svt / no-field / qp-adaptation-range=1.00 / scenecut-aware-qp=0conformance-window-offsets / right=0 / bottom=0 / NTM4NzU= / decoder-max-rate=0 / no-vbv-live-multi-pass
  36. Default                                  : Yes
  37. Forced                                   : No
  38. Color range                              : Limited
  39. Color primaries                          : BT.709
  40. Transfer characteristics                 : BT.709
  41. Matrix coefficients                      : BT.709
  42. Audio #1
  43. ID                                       : 2
  44. Format                                   : E-AC-3
  45. Format/Info                              : Enhanced AC-3
  46. Commercial name                          : Dolby Digital Plus
  47. Codec ID                                 : A_EAC3
  48. Duration                                 : 1 h 30 min
  49. Bit rate mode                            : Constant
  50. Bit rate                                 : 768 kb/s
  51. Channel(s)                               : 6 channels
  52. Channel layout                           : L R C LFE Ls Rs
  53. Sampling rate                            : 48.0 kHz
  54. Frame rate                               : 62.500 FPS (768 SPF)
  55. Compression mode                         : Lossy
  56. Stream size                              : 495 MiB (9%)
  57. Language                                 : English
  58. Service kind                             : Complete Main
  59. Default                                  : Yes
  60. Forced                                   : No
  61. Audio #2
  62. ID                                       : 3
  63. Format                                   : Opus
  64. Codec ID                                 : A_OPUS
  65. Duration                                 : 1 h 30 min
  66. Bit rate                                 : 66.7 kb/s
  67. Channel(s)                               : 2 channels
  68. Channel layout                           : L R
  69. Sampling rate                            : 48.0 kHz
  70. Frame rate                               : 50.000 FPS (960 SPF)
  71. Compression mode                         : Lossy
  72. Stream size                              : 43.0 MiB (1%)
  73. Title                                    : Commentary
  74. Writing library                          : opusenc from opus-tools 0.2-3-gf5f571b
  75. Language                                 : English
  76. Default                                  : No
  77. Forced                                   : No
  78. ENCODER_OPTIONS                          : --bitrate 70
  79. Text #1
  80. ID                                       : 4
  81. ID in the original source medium         : 4608 (0x1200)
  82. Format                                   : PGS
  83. Muxing mode                              : zlib
  84. Codec ID                                 : S_HDMV/PGS
  85. Codec ID/Info                            : Picture based subtitle format used on BDs/HD-DVDs
  86. Duration                                 : 1 h 22 min
  87. Bit rate                                 : 22.4 kb/s
  88. Count of elements                        : 1224
  89. Stream size                              : 13.2 MiB (0%)
  90. Language                                 : English
  91. Default                                  : No
  92. Forced                                   : No
  93. Original source medium                   : Blu-ray
  94. Text #2
  95. ID                                       : 5
  96. ID in the original source medium         : 4609 (0x1201)
  97. Format                                   : PGS
  98. Muxing mode                              : zlib
  99. Codec ID                                 : S_HDMV/PGS
  100. Codec ID/Info                            : Picture based subtitle format used on BDs/HD-DVDs
  101. Duration                                 : 1 h 22 min
  102. Bit rate                                 : 26.7 kb/s
  103. Count of elements                        : 1666
  104. Stream size                              : 15.8 MiB (0%)
  105. Language                                 : English
  106. Default                                  : No
  107. Forced                                   : No
  108. Original source medium                   : Blu-ray
  109. Text #3
  110. ID                                       : 6
  111. ID in the original source medium         : 4610 (0x1202)
  112. Format                                   : PGS
  113. Muxing mode                              : zlib
  114. Codec ID                                 : S_HDMV/PGS
  115. Codec ID/Info                            : Picture based subtitle format used on BDs/HD-DVDs
  116. Duration                                 : 1 h 22 min
  117. Bit rate                                 : 21.0 kb/s
  118. Count of elements                        : 1238
  119. Stream size                              : 12.4 MiB (0%)
  120. Language                                 : Spanish
  121. Default                                  : No
  122. Forced                                   : No
  123. Original source medium                   : Blu-ray
  124. Text #4
  125. ID                                       : 7
  126. ID in the original source medium         : 4611 (0x1203)
  127. Format                                   : PGS
  128. Muxing mode                              : zlib
  129. Codec ID                                 : S_HDMV/PGS
  130. Codec ID/Info                            : Picture based subtitle format used on BDs/HD-DVDs
  131. Duration                                 : 1 h 22 min
  132. Bit rate                                 : 13.1 kb/s
  133. Count of elements                        : 1306
  134. Stream size                              : 7.78 MiB (0%)
  135. Title                                    : CHS
  136. Language                                 : Chinese
  137. Default                                  : No
  138. Forced                                   : No
  139. Original source medium                   : Blu-ray
  140. Text #5
  141. ID                                       : 8
  142. ID in the original source medium         : 4612 (0x1204)
  143. Format                                   : PGS
  144. Muxing mode                              : zlib
  145. Codec ID                                 : S_HDMV/PGS
  146. Codec ID/Info                            : Picture based subtitle format used on BDs/HD-DVDs
  147. Duration                                 : 1 h 22 min
  148. Bit rate                                 : 13.6 kb/s
  149. Count of elements                        : 1306
  150. Stream size                              : 8.07 MiB (0%)
  151. Title                                    : CHT
  152. Language                                 : Chinese
  153. Default                                  : No
  154. Forced                                   : No
  155. Original source medium                   : Blu-ray
  156. Text #6
  157. ID                                       : 9
  158. ID in the original source medium         : 4613 (0x1205)
  159. Format                                   : PGS
  160. Muxing mode                              : zlib
  161. Codec ID                                 : S_HDMV/PGS
  162. Codec ID/Info                            : Picture based subtitle format used on BDs/HD-DVDs
  163. Duration                                 : 1 h 22 min
  164. Bit rate                                 : 23.5 kb/s
  165. Count of elements                        : 1306
  166. Stream size                              : 13.9 MiB (0%)
  167. Title                                    : chs&eng
  168. Language                                 : Chinese
  169. Default                                  : Yes
  170. Forced                                   : No
  171. Original source medium                   : Blu-ray
  172. Text #7
  173. ID                                       : 10
  174. ID in the original source medium         : 4614 (0x1206)
  175. Format                                   : PGS
  176. Muxing mode                              : zlib
  177. Codec ID                                 : S_HDMV/PGS
  178. Codec ID/Info                            : Picture based subtitle format used on BDs/HD-DVDs
  179. Duration                                 : 1 h 22 min
  180. Bit rate                                 : 24.0 kb/s
  181. Count of elements                        : 1306
  182. Stream size                              : 14.2 MiB (0%)
  183. Title                                    : cht&eng
  184. Language                                 : Chinese
  185. Default                                  : No
  186. Forced                                   : No
  187. Original source medium                   : Blu-ray
  188. Menu
  189. 00:00:00.000                             : en:第 01 章
  190. 00:09:31.654                             : en:第 02 章
  191. 00:14:48.137                             : en:第 03 章
  192. 00:23:01.254                             : en:第 04 章
  193. 00:28:35.088                             : en:第 05 章
  194. 00:37:37.713                             : en:第 06 章
  195. 00:43:15.634                             : en:第 07 章
  196. 00:49:42.854                             : en:第 08 章
  197. 00:57:29.028                             : en:第 09 章
  198. 01:05:09.697                             : en:第 10 章
  199. 01:14:00.269                             : en:第 11 章
  200. 01:23:28.336                             : en:第 12 章
复制代码



保举请利用qBittorrent,utorrent,transmission等标准BT软件下载!以获得最快速度。奉求保种!





回复

使用道具 举报

蓝光币
414
发表于 2022-7-29 18:44:15 | 显示全部楼层
谢谢分享!!!!!!
回复

使用道具 举报

懒得打字嘛,点击右侧快捷回复 【右侧内容,后台自定义】
您需要登录后才可以回帖 登录 | 立即加入

本版积分规则

Archiver|小黑屋| 蓝光电影网 |网站地图

Copyright © 2021 Comsenz Inc. Powered by 蓝光电影网

蓝光电影网

本站内容由用户自主分享和转载自互联网,转载目的在于传递更多信息,并不代表本网赞同其观点和对其真实性负责。

如有侵权、违反国家法律政策行为,请联系我们,我们会第一时间及时清除和处理!

举报反馈邮箱:[email protected]

快速回复 返回顶部 返回列表