找回密码

蓝光电影网

查看: 49|回复: 0

[剧情] 格兰德岛[简繁英字幕].Grand.Isle.2019.Bluray.1080p.x265.10bit-MiniHD 4.37GB

[复制链接]
蓝光币
7
发表于 2022-7-29 01:57:22 | 显示全部楼层 |阅读模式


◎标  题 格兰德岛
◎片  名 Grand Isle
◎年  代 2019
◎产  地 美国
◎类  别 行动 / 惊悚
◎语  言 英语
◎上映日期 2019-12-06(美国)
◎IMDb评分 4.6/10 (4813人评价)
◎IMDb链接 https://www.imdb.com/title/tt8380776/
◎豆瓣评分 4.5/10 (784人评价)
◎豆瓣链接 https://movie.douban.com/subject/30308410/
◎片  长 97分钟
◎导  演 斯蒂芬·S·坎帕内利 Stephen S. Campanelli
◎编  剧 里奇·罗纳特 Rich Ronat
◎演  员 尼古拉斯·凯奇 Nicolas Cage
       凯尔希·格兰莫 Kelsey Grammer
       祖蕾·亨奥 Zulay Henao
       卢克·本沃德 Luke Benward
       卡迪·斯特瑞兰德 KaDee Strickland
       艾米丽·玛丽·帕尔默 Emily Marie Palmer
       奥利弗·特雷韦纳 Oliver Trevena
       比阿特丽丝·埃尔南德斯 Beatrice Hernandez
◎简  介
  一位年轻父亲遭人诬陷为谋杀案罪犯,为了证实自己的明净,他必必要在自己履历过的一系列可骇而古怪的事务中寻觅线索和答案。                                    
                                本片由已经执导过《绝命偷盗》并屡次与克林特·伊斯特伍德合作的导演Stephen S. Campanelli和新晋导演Iver William Jallah结合执导,尼古拉斯·凯奇公布加盟该片。
  1. ##### MediaInfo ######
  2. General
  3. Unique ID                                : 182213764578239727243723532064181374976 (0x891518344D7D8396B681212D706ED000)
  4. Complete name                            : Grand.Isle.2019.Bluray.1080p.x265.10bit-MiniHD.mkv
  5. Format                                   : Matroska
  6. Format version                           : Version 4
  7. File size                                : 4.37 GiB
  8. Duration                                 : 1 h 37 min
  9. Overall bit rate                         : 6 426 kb/s
  10. Movie name                               : Grand Isle [2019] Bluray 1080p MNHD-FRDS
  11. Encoded date                             : UTC 2021-02-04 06:39:02
  12. Writing application                      : mkvmerge v52.0.0 ('Secret For The Mad') 64-bit
  13. Writing library                          : libebml v1.4.1 + libmatroska v1.6.2
  14. Video
  15. ID                                       : 2
  16. Format                                   : HEVC
  17. Format/Info                              : High Efficiency Video Coding
  18. Format profile                           : Main [email protected]@High
  19. Codec ID                                 : V_MPEGH/ISO/HEVC
  20. Duration                                 : 1 h 37 min
  21. Bit rate                                 : 5 757 kb/s
  22. Width                                    : 1 920 pixels
  23. Height                                   : 872 pixels
  24. Display aspect ratio                     : 2.2:1
  25. Frame rate mode                          : Constant
  26. Frame rate                               : 23.976 (24000/1001/53875) FPS
  27. Color space                              : YUV
  28. Chroma subsampling                       : 4:2:0
  29. Bit depth                                : 10 bits
  30. Bits/(Pixel*Frame)                       : 0.143
  31. Stream size                              : 3.91 GiB (90%)
  32. Writing library                          : x265 3.2.1+1-b5c86a64bbbe:[Linux][GCC 9.3.0][64 bit] 10bit
  33. Encoding settings                        : cpuid=538751111039 / frame-threads=3 / wpp / pmode / no-pme / no-psnr / no-ssim / log-level=2 / input-csp=1 / input-res=1920x872 / interlace=0 / total-frames=139951 / level-idc=0 / high-tier=1 / uhd-bd=0 / ref=6 / no-allow-non-conformance / no-repeat-headers / annexb / no-aud / no-hrd / info / hash=0 / no-temporal-layers / no-open-gop / min-keyint=23 / keyint=250 / gop-lookahead=0 / bframes=16 / b-adapt=2 / b-pyramid / bframe-bias=0 / rc-lookahead=100 / lookahead-slices=0 / NTM4NzU=uuDQuD2mJt9fsCf / scenecut=40 / radl=0 / no-splice / no-intra-refresh / ctu=32 / min-cu-size=8 / no-rect / no-amp / max-tu-size=32 / tu-inter-depth=4 / tu-intra-depth=4 / limit-tu=0 / rdoq-level=2 / dynamic-rd=0.00 / no-ssim-rd / signhide / no-tskip / nr-intra=0 / nr-inter=0 / no-constrained-intra / strong-intra-smoothing / max-merge=5 / limit-refs=0 / no-limit-modes / me=3 / subme=7 / merange=57 / temporal-mvp / no-hme / weightp / weightb / no-analyze-src-pics / deblock=-3:-3 / no-sao / no-sao-non-deblock / rd=4 / selective-sao=0 / no-early-skip / no-rskip / no-fast-intra / no-tskip-fast / no-cu-lossless / b-intra / no-splitrd-skip / rdpenalty=0 / psy-rd=1.00 / psy-rdoq=1.00 / no-rd-refine / no-lossless / cbqpoffs=0 / crqpoffs=0 / rc=crf / crf=21.5 / qcomp=0.60 / qpstep=4 / stats-write=0 / stats-read=0 / vbv-maxrate=160000 / vbv-bufsize=160000 / vbv-init=0.9 / crf-max=0.0 / crf-min=0.0 / ipratio=1.30 / pbratio=1.20 / aq-mode=1 / aq-strength=1.00 / no-cutree / zone-count=0 / no-strict-cbr / qg-size=32 / no-rc-grain / qpmax=69 / qpmin=0 / no-const-vbv / sar=0 / overscan=0 / videoformat=5 / range=0 / colorprim=1 / transfer=1 / colormatrix=1 / chromaloc=0 / display-window=0 / cll=0,0 / min-luma=0 / max-luma=1023 / log2-max-poc-lsb=8 / vui-timing-info / vui-hrd-info / slices=1 / no-opt-qp-pps / no-opt-ref-list-length-pps / no-multi-pass-opt-rps / scenecut-bias=0.05 / no-opt-cu-delta-qp / no-aq-motion / no-hdr / no-hdr-opt / no-dhdr10-opt / no-idr-recovery-sei / analysis-reuse-level=5 / scale-factor=0 / refine-intra=0 / refine-inter=0 / refine-mv=1 / refine-ctu-distortion=0 / no-limit-sao / ctu-info=0 / no-lowpass-dct / refine-analysis-type=0 / copy-pic=1 / max-ausize-factor=1.0 / no-dynamic-refine / no-single-sei / no-hevc-aq / no-svt / no-field / qp-adaptation-range=1.00
  34. Default                                  : Yes
  35. Forced                                   : No
  36. Color range                              : Limited
  37. Color primaries                          : BT.709
  38. Transfer characteristics                 : BT.709
  39. Matrix coefficients                      : BT.709
  40. Audio
  41. ID                                       : 1
  42. Format                                   : AC-3
  43. Format/Info                              : Audio Coding 3
  44. Commercial name                          : Dolby Digital
  45. Codec ID                                 : A_AC3
  46. Duration                                 : 1 h 37 min
  47. Bit rate mode                            : Constant
  48. Bit rate                                 : 640 kb/s
  49. Channel(s)                               : 6 channels
  50. Channel layout                           : L R C LFE Ls Rs
  51. Sampling rate                            : 48.0 kHz
  52. Frame rate                               : 31.250 FPS (1536 SPF)
  53. Compression mode                         : Lossy
  54. Stream size                              : 445 MiB (10%)
  55. Language                                 : English
  56. Service kind                             : Complete Main
  57. Default                                  : Yes
  58. Forced                                   : No
  59. Text #1
  60. ID                                       : 3
  61. Format                                   : PGS
  62. Muxing mode                              : zlib
  63. Codec ID                                 : S_HDMV/PGS
  64. Codec ID/Info                            : Picture based subtitle format used on BDs/HD-DVDs
  65. Duration                                 : 1 h 36 min
  66. Bit rate                                 : 17.5 kb/s
  67. Count of elements                        : 2626
  68. Stream size                              : 12.1 MiB (0%)
  69. Title                                    : eng
  70. Language                                 : English
  71. Default                                  : No
  72. Forced                                   : No
  73. Text #2
  74. ID                                       : 4
  75. Format                                   : PGS
  76. Muxing mode                              : zlib
  77. Codec ID                                 : S_HDMV/PGS
  78. Codec ID/Info                            : Picture based subtitle format used on BDs/HD-DVDs
  79. Duration                                 : 1 h 33 min
  80. Bit rate                                 : 20.9 kb/s
  81. Count of elements                        : 2062
  82. Stream size                              : 14.0 MiB (0%)
  83. Title                                    : chs
  84. Language                                 : Chinese
  85. Default                                  : Yes
  86. Forced                                   : No
  87. Text #3
  88. ID                                       : 5
  89. ID in the original source medium         : 4610 (0x1202)
  90. Format                                   : PGS
  91. Muxing mode                              : zlib
  92. Codec ID                                 : S_HDMV/PGS
  93. Codec ID/Info                            : Picture based subtitle format used on BDs/HD-DVDs
  94. Duration                                 : 1 h 33 min
  95. Bit rate                                 : 21.5 kb/s
  96. Count of elements                        : 2062
  97. Stream size                              : 14.4 MiB (0%)
  98. Title                                    : cht
  99. Language                                 : Chinese
  100. Default                                  : No
  101. Forced                                   : No
  102. Original source medium                   : Blu-ray
  103. Menu
  104. 00:00:00.000                             : en:第 01 章
  105. 00:06:06.240                             : en:第 02 章
  106. 00:15:55.162                             : en:第 03 章
  107. 00:23:30.283                             : en:第 04 章
  108. 00:32:34.077                             : en:第 05 章
  109. 00:40:36.725                             : en:第 06 章
  110. 00:51:06.063                             : en:第 07 章
  111. 00:56:13.203                             : en:第 08 章
  112. 01:03:28.429                             : en:第 09 章
  113. 01:13:52.594                             : en:第 10 章
  114. 01:23:06.398                             : en:第 11 章
  115. 01:34:26.952                             : en:第 12 章
复制代码

















保举请利用qBittorrent,utorrent,transmission等标准BT软件下载!以获得最快速度。奉求保种!





回复

使用道具 举报

懒得打字嘛,点击右侧快捷回复 【右侧内容,后台自定义】
您需要登录后才可以回帖 登录 | 立即加入

本版积分规则

Archiver|小黑屋| 蓝光电影网 |网站地图

Copyright © 2021 Comsenz Inc. Powered by 蓝光电影网

蓝光电影网

本站内容由用户自主分享和转载自互联网,转载目的在于传递更多信息,并不代表本网赞同其观点和对其真实性负责。

如有侵权、违反国家法律政策行为,请联系我们,我们会第一时间及时清除和处理!

举报反馈邮箱:[email protected]

快速回复 返回顶部 返回列表