找回密码

蓝光电影网

查看: 50|回复: 0

[剧情] 碧蓝之海[简繁字幕].Grand.Blue.2020.Bluray.1080p.x265.10bit-MiniHD 5.88GB

[复制链接]
蓝光币
7
发表于 2022-7-29 01:57:24 | 显示全部楼层 |阅读模式


◎标  题 碧蓝之海
◎译  名 碧蓝之海戏院版(台)
◎片  名 ぐらんぶる
◎年  代 2020
◎产  地 日本
◎类  别 剧情 / 笑剧
◎语  言 日语
◎上映日期 2020-07-26(上海电影节) / 2020-08-07(日本)
◎IMDb评分 5.8/10 (277人评价)
◎IMDb链接 https://www.imdb.com/title/tt11312092/
◎豆瓣评分 6.6/10 (5481人评价)
◎豆瓣链接 https://movie.douban.com/subject/34460303/
◎片  长 108分钟
◎导  演 英勉 Tsutomu Hanabusa
◎编  剧 英勉 Tsutomu Hanabusa
       宇田学 Manabu Uda
◎演  员 龙星凉 Ryo Ryûsei
       犬饲贵丈 Atsuhiro Inukai
       与田祐希 Yuuki Yoda
       朝比奈彩 Aya Asahina
       小仓优香 Yuka Ogura
       石川恋 Ren Ishikawa
       高岛政宏 Masahiro Takashima
       松本海希 Miki Matsumoto
       白川悠衣 Yui Shirakawa
       田中聪元 Sogen Tanaka
       平田雄也 Yūya Hirata
       岩永洋昭 Hiroaki Iwanaga
       铃之助 Suzunosuke
       森永悠希 Yuki Morinaga
       矢本悠马 Yuma Yamoto
       岩村爱子 Iwamura Aiko
       小松高志 Takashi Komatsu
◎简  介
  北原伊织(龙星凉饰)在升上大学后,寄宿在叔父所经营的潜水商铺「GRAND BLUE」,而且与相隔十年不见的表姐妹—古手川奈奈华(朝比奈彩饰)和古手川千纱(与田佑希饰)同住一个屋檐下生活。对青春大学新生活布满期待的他,被大学潜水社团「Peek a Boo」盯上,却不知被社团先辈盯上,连酷爱二次元天下的朋友今村耕平也一路被扯进来,因而展开了一段连系潜水、裸体、酒精、打闹、妄想、恋爱的荒诞大门生活。                                    
                                为什么在大学里全裸狂奔⁉️ 由于疯狂的青春只要一次‼ ️
  1. ##### MediaInfo ######
  2. General
  3. Unique ID                                : 292848077536464948783750027996052254931 (0xDC507CF89A359EBC62D96FC547A6F0D3)
  4. Complete name                            : Grand.Blue.2020.Bluray.1080p.x265.10bit-MiniHD.mkv
  5. Format                                   : Matroska
  6. Format version                           : Version 4
  7. File size                                : 5.88 GiB
  8. Duration                                 : 1 h 47 min
  9. Overall bit rate                         : 7 828 kb/s
  10. Movie name                               : Grand Blue [2020] Bluray 1080p MNHD-FRDS
  11. Encoded date                             : UTC 2021-01-31 06:41:22
  12. Writing application                      : mkvmerge v52.0.0 ('Secret For The Mad') 64-bit
  13. Writing library                          : libebml v1.4.1 + libmatroska v1.6.2
  14. Video
  15. ID                                       : 1
  16. Format                                   : HEVC
  17. Format/Info                              : High Efficiency Video Coding
  18. Format profile                           : Main [email protected]@High
  19. Codec ID                                 : V_MPEGH/ISO/HEVC
  20. Duration                                 : 1 h 47 min
  21. Bit rate                                 : 7 147 kb/s
  22. Width                                    : 1 920 pixels
  23. Height                                   : 1 038 pixels
  24. Display aspect ratio                     : 1.85:1
  25. Frame rate mode                          : Constant
  26. Frame rate                               : 23.976 (24000/1001/53875) FPS
  27. Color space                              : YUV
  28. Chroma subsampling                       : 4:2:0
  29. Bit depth                                : 10 bits
  30. Bits/(Pixel*Frame)                       : 0.150
  31. Stream size                              : 5.37 GiB (91%)
  32. Writing library                          : x265 3.4+30-g6722fce1f:[Windows][GCC 10.2.0][64 bit] 10bit
  33. Encoding settings                        : cpuid=538751111039 / frame-threads=3 / numa-pools=8 / wpp / pmode / no-pme / no-psnr / no-ssim / log-level=2 / input-csp=1 / input-res=1920x1038 / interlace=0 / total-frames=154765 / level-idc=0 / high-tier=1 / uhd-bd=0 / ref=6 / no-allow-non-conformance / no-repeat-headers / annexb / no-aud / no-hrd / info / hash=0 / no-temporal-layers / no-open-gop / min-keyint=23 / keyint=250 / gop-lookahead=0 / bframes=16 / b-adapt=2 / b-pyramid / bframe-bias=0 / rc-lookahead=100 / lookahead-slices=0 / NTM4NzU=uuDQuD2mJt9fsCf / scenecut=40 / hist-scenecut=0 / radl=0 / no-splice / no-intra-refresh / ctu=32 / min-cu-size=8 / no-rect / no-amp / max-tu-size=32 / tu-inter-depth=4 / tu-intra-depth=4 / limit-tu=0 / rdoq-level=2 / dynamic-rd=0.00 / no-ssim-rd / signhide / no-tskip / nr-intra=0 / nr-inter=0 / no-constrained-intra / strong-intra-smoothing / max-merge=5 / limit-refs=0 / no-limit-modes / me=3 / subme=7 / merange=57 / temporal-mvp / no-frame-dup / no-hme / weightp / weightb / no-analyze-src-pics / deblock=-3:-3 / no-sao / no-sao-non-deblock / rd=4 / selective-sao=0 / no-early-skip / no-rskip / no-fast-intra / no-tskip-fast / no-cu-lossless / b-intra / no-splitrd-skip / rdpenalty=0 / psy-rd=1.00 / psy-rdoq=1.00 / no-rd-refine / no-lossless / cbqpoffs=0 / crqpoffs=0 / rc=crf / crf=19.0 / qcomp=0.60 / qpstep=4 / stats-write=0 / stats-read=0 / vbv-maxrate=160000 / vbv-bufsize=160000 / vbv-init=0.9 / min-vbv-fullness=50.0 / max-vbv-fullness=80.0 / crf-max=0.0 / crf-min=0.0 / ipratio=1.30 / pbratio=1.20 / aq-mode=1 / aq-strength=1.00 / no-cutree / zone-count=0 / no-strict-cbr / qg-size=32 / no-rc-grain / qpmax=69 / qpmin=0 / no-const-vbv / sar=0 / overscan=0 / videoformat=5 / range=0 / colorprim=1 / transfer=1 / colormatrix=1 / chromaloc=0 / display-window=0 / cll=0,0 / min-luma=0 / max-luma=1023 / log2-max-poc-lsb=8 / vui-timing-info / vui-hrd-info / slices=1 / no-opt-qp-pps / no-opt-ref-list-length-pps / no-multi-pass-opt-rps / scenecut-bias=0.05 / hist-threshold=0.03 / no-opt-cu-delta-qp / no-aq-motion / no-hdr10 / no-hdr10-opt / no-dhdr10-opt / no-idr-recovery-sei / analysis-reuse-level=0 / analysis-save-reuse-level=0 / analysis-load-reuse-level=0 / scale-factor=0 / refine-intra=0 / refine-inter=0 / refine-mv=1 / refine-ctu-distortion=0 / no-limit-sao / ctu-info=0 / no-lowpass-dct / refine-analysis-type=0 / copy-pic=1 / max-ausize-factor=1.0 / no-dynamic-refine / no-single-sei / no-hevc-aq / no-svt / no-field / qp-adaptation-range=1.00 / no-scenecut-aware-qpconformance-window-offsets / right=0 / bottom=0 / NTM4NzU= / decoder-max-rate=0 / no-vbv-live-multi-pass
  34. Default                                  : Yes
  35. Forced                                   : No
  36. Color range                              : Limited
  37. Color primaries                          : BT.709
  38. Transfer characteristics                 : BT.709
  39. Matrix coefficients                      : BT.709
  40. Audio
  41. ID                                       : 2
  42. Format                                   : AC-3
  43. Format/Info                              : Audio Coding 3
  44. Commercial name                          : Dolby Digital
  45. Codec ID                                 : A_AC3
  46. Duration                                 : 1 h 47 min
  47. Bit rate mode                            : Constant
  48. Bit rate                                 : 640 kb/s
  49. Channel(s)                               : 6 channels
  50. Channel layout                           : L R C LFE Ls Rs
  51. Sampling rate                            : 48.0 kHz
  52. Frame rate                               : 31.250 FPS (1536 SPF)
  53. Compression mode                         : Lossy
  54. Stream size                              : 492 MiB (8%)
  55. Language                                 : Japanese
  56. Service kind                             : Complete Main
  57. Default                                  : Yes
  58. Forced                                   : No
  59. Text #1
  60. ID                                       : 3
  61. ID in the original source medium         : 4608 (0x1200)
  62. Format                                   : PGS
  63. Muxing mode                              : zlib
  64. Codec ID                                 : S_HDMV/PGS
  65. Codec ID/Info                            : Picture based subtitle format used on BDs/HD-DVDs
  66. Duration                                 : 1 h 46 min
  67. Bit rate                                 : 45.0 kb/s
  68. Count of elements                        : 3404
  69. Stream size                              : 34.4 MiB (1%)
  70. Title                                    : jpn
  71. Language                                 : Japanese
  72. Default                                  : No
  73. Forced                                   : No
  74. Original source medium                   : Blu-ray
  75. Text #2
  76. ID                                       : 4
  77. ID in the original source medium         : 4609 (0x1201)
  78. Format                                   : PGS
  79. Muxing mode                              : zlib
  80. Codec ID                                 : S_HDMV/PGS
  81. Codec ID/Info                            : Picture based subtitle format used on BDs/HD-DVDs
  82. Duration                                 : 1 h 42 min
  83. Bit rate                                 : 22.0 kb/s
  84. Count of elements                        : 2269
  85. Stream size                              : 16.1 MiB (0%)
  86. Title                                    : chs
  87. Language                                 : Chinese
  88. Default                                  : Yes
  89. Forced                                   : No
  90. Original source medium                   : Blu-ray
  91. Text #3
  92. ID                                       : 5
  93. ID in the original source medium         : 4610 (0x1202)
  94. Format                                   : PGS
  95. Muxing mode                              : zlib
  96. Codec ID                                 : S_HDMV/PGS
  97. Codec ID/Info                            : Picture based subtitle format used on BDs/HD-DVDs
  98. Duration                                 : 1 h 42 min
  99. Bit rate                                 : 22.6 kb/s
  100. Count of elements                        : 2269
  101. Stream size                              : 16.6 MiB (0%)
  102. Title                                    : cht
  103. Language                                 : Chinese
  104. Default                                  : No
  105. Forced                                   : No
  106. Original source medium                   : Blu-ray
  107. Menu
  108. 00:00:00.000                             : en:第 01 章
  109. 00:07:27.947                             : en:第 02 章
  110. 00:11:50.167                             : en:第 03 章
  111. 00:19:33.171                             : en:第 04 章
  112. 00:31:25.216                             : en:第 05 章
  113. 00:41:31.989                             : en:第 06 章
  114. 00:50:12.134                             : en:第 07 章
  115. 01:04:36.539                             : en:第 08 章
  116. 01:16:46.351                             : en:第 09 章
  117. 01:29:19.020                             : en:第 10 章
  118. 01:39:29.963                             : en:第 11 章
  119. 01:43:33.874                             : en:第 12 章
复制代码

















保举请利用qBittorrent,utorrent,transmission等标准BT软件下载!以获得最快速度。奉求保种!





回复

使用道具 举报

懒得打字嘛,点击右侧快捷回复 【右侧内容,后台自定义】
您需要登录后才可以回帖 登录 | 立即加入

本版积分规则

Archiver|小黑屋| 蓝光电影网 |网站地图

Copyright © 2021 Comsenz Inc. Powered by 蓝光电影网

蓝光电影网

本站内容由用户自主分享和转载自互联网,转载目的在于传递更多信息,并不代表本网赞同其观点和对其真实性负责。

如有侵权、违反国家法律政策行为,请联系我们,我们会第一时间及时清除和处理!

举报反馈邮箱:[email protected]

快速回复 返回顶部 返回列表