找回密码

蓝光电影网

查看: 111|回复: 1

[剧情] 狐狸猎手[简繁英字幕].Foxcatcher.2014.BluRay.1080p.x265.10bit.DDP.5.1-MiniHD 8.88GB

[复制链接]
蓝光币
8
发表于 2022-7-29 01:57:29 | 显示全部楼层 |阅读模式


◎标  题 狐狸猎手
◎译  名 猎狐捕手(港) / 暗黑冠军路(台) / 狐狸捕手 / Mark v. Du Pont: The True Story of a Shocking Murder
◎片  名 Foxcatcher
◎年  代 2014
◎产  地 美国
◎类  别 剧情 / 列传 / 活动
◎语  言 英语
◎上映日期 2014-05-19(戛纳电影节) / 2015-01-16(美国)
◎IMDb评分 7/10 (139386人评价)
◎IMDb链接 https://www.imdb.com/title/tt1100089/
◎豆瓣评分 7.4/10 (23332人评价)
◎豆瓣链接 https://movie.douban.com/subject/3011022/
◎片  长 134分钟
◎导  演 贝尼特·米勒 Bennett Miller
◎编  剧 E·马克斯·弗莱 E. Max Frye
       丹·福特曼 Dan Futterman
◎演  员 史蒂夫·卡瑞尔 Steve Carell
       查宁·塔图姆 Channing Tatum
       马克·鲁弗洛 Mark Ruffalo
       西耶娜·米勒 Sienna Miller
       瓦妮莎·雷德格雷夫 Vanessa Redgrave
       杰克逊·弗雷泽 Jackson Frazer
       萨马拉·李 Samara Lee
       Richard E. Chapla Jr. Richard E. Chapla Jr.
       Lee Perkins Lee Perkins
       盖伊·博伊德 Guy Boyd
       科里·简森 Corey Jantzen
       丹尼尔·希尔特 Daniel Hilt
       安东尼·迈克尔·豪尔 Anthony Michael Hall
       布雷特·赖斯 Brett Rice
       梅根·埃里森 Megan Ellison
       贝尼特·米勒 Bennett Miller
       约翰·约翰逊 Jóhann Jóhannsson
       罗伯·西蒙森 Rob Simonsen
       格雷格·弗莱瑟 Greig Fraser
       杰伊·卡西迪 Jay Cassidy
       丹尼斯·利迪亚德 Dennis Liddiard
◎标  签 美国 / 列传 / 剧情 / 2014 / 体育 / 活动 / 人性 / 实在事务改编
◎简  介
  马克(查宁·塔图姆 Channing Tatum 饰)是一位职业摔跤手,在曩昔的职业生活中,他也曾有过光辉的成功,但是,现在,一切光芒都已经散去,他不外只一个碌碌无为的知名小卒。马克的哥哥大卫(马克·鲁法洛 Mark Ruffalo 饰)也是一位摔跤手,兄弟两人相互之间 关系非常要好,可是,马克大白,大卫有自己的家庭和奇迹,而自己却只要摔跤。                                    
                                某日,马锐意外遭到了一位名为约翰(史蒂夫·卡瑞尔 Steve Carell 饰)的奥秘巨贾的约请,希望马克可以成为他所组建的摔跤队中的一员,在约翰的摔跤队中,马克找到了自己的代价地点,深受约翰重用的他成为了约翰唯一的朋友,但是,随着时候的推移,当大卫也加入了摔跤队后,一切都起头改变。                                    
                                本片按照实在故事改编。
  1. ##### MediaInfo ######
  2. General
  3. Unique ID                                : 206960742868733088955248078874086546623 (0x9BB3306F6F2C4A6516FB32E004411CBF)
  4. Complete name                            : Foxcatcher.2014.BluRay.1080p.x265.10bit.DDP.5.1-MiniHD.mkv
  5. Format                                   : Matroska
  6. Format version                           : Version 4
  7. File size                                : 8.88 GiB
  8. Duration                                 : 2 h 14 min
  9. Overall bit rate                         : 9 453 kb/s
  10. Movie name                               : Foxcatcher – Blu-ray?
  11. Encoded date                             : UTC 2021-01-13 12:23:27
  12. Writing application                      : mkvmerge v51.0.0 ('I Wish') 64-bit
  13. Writing library                          : libebml v1.4.0 + libmatroska v1.6.2
  14. Cover                                    : Yes
  15. Attachments                              : cover.jpg
  16. Video
  17. ID                                       : 1
  18. Format                                   : HEVC
  19. Format/Info                              : High Efficiency Video Coding
  20. Format profile                           : Main [email protected]@High
  21. Codec ID                                 : V_MPEGH/ISO/HEVC
  22. Duration                                 : 2 h 14 min
  23. Bit rate                                 : 8 212 kb/s
  24. Width                                    : 1 920 pixels
  25. Height                                   : 1 040 pixels
  26. Display aspect ratio                     : 1.85:1
  27. Frame rate mode                          : Constant
  28. Frame rate                               : 23.976 (24000/1001/53875) FPS
  29. Color space                              : YUV
  30. Chroma subsampling                       : 4:2:0
  31. Bit depth                                : 10 bits
  32. Bits/(Pixel*Frame)                       : 0.172
  33. Stream size                              : 7.71 GiB (87%)
  34. Writing library                          : x265 3.4+33-606265ac7:[Windows][MSVC 1928][64 bit] 10bit
  35. Encoding settings                        : cpuid=538751049583 / frame-threads=5 / numa-pools=20,20,20,20 / wpp / pmode / no-pme / no-psnr / no-ssim / log-level=2 / input-csp=1 / input-res=1920x1040 / interlace=0 / total-frames=193392 / level-idc=0 / high-tier=1 / uhd-bd=0 / ref=4 / no-allow-non-conformance / no-repeat-headers / annexb / no-aud / no-hrd / info / hash=0 / no-temporal-layers / no-open-gop / min-keyint=1 / keyint=250 / gop-lookahead=0 / bframes=6 / b-adapt=2 / b-pyramid / bframe-bias=0 / rc-lookahead=80 / lookahead-slices=0 / NTM4NzU=uuDQuD2mJt9fsCf / scenecut=40 / hist-scenecut=0 / radl=0 / no-splice / no-intra-refresh / ctu=32 / min-cu-size=8 / no-rect / no-amp / max-tu-size=32 / tu-inter-depth=4 / tu-intra-depth=4 / limit-tu=0 / rdoq-level=2 / dynamic-rd=0.00 / no-ssim-rd / signhide / tskip / nr-intra=0 / nr-inter=0 / no-constrained-intra / strong-intra-smoothing / max-merge=5 / limit-refs=0 / no-limit-modes / me=3 / subme=7 / merange=44 / temporal-mvp / no-frame-dup / no-hme / weightp / weightb / no-analyze-src-pics / deblock=-3:-3 / no-sao / no-sao-non-deblock / rd=4 / selective-sao=0 / no-early-skip / no-rskip / no-fast-intra / no-tskip-fast / no-cu-lossless / b-intra / no-splitrd-skip / rdpenalty=0 / psy-rd=1.50 / psy-rdoq=1.00 / no-rd-refine / no-lossless / cbqpoffs=-2 / crqpoffs=-2 / rc=crf / crf=21.0 / qcomp=0.65 / qpstep=4 / stats-write=0 / stats-read=0 / vbv-maxrate=160000 / vbv-bufsize=160000 / vbv-init=0.9 / min-vbv-fullness=50.0 / max-vbv-fullness=80.0 / crf-max=0.0 / crf-min=0.0 / ipratio=1.30 / pbratio=1.20 / aq-mode=2 / aq-strength=0.90 / no-cutree / zone-count=0 / no-strict-cbr / qg-size=8 / no-rc-grain / qpmax=69 / qpmin=0 / no-const-vbv / sar=0 / overscan=0 / videoformat=5 / range=0 / colorprim=1 / transfer=1 / colormatrix=1 / chromaloc=0 / display-window=0 / cll=0,0 / min-luma=0 / max-luma=1023 / log2-max-poc-lsb=8 / vui-timing-info / vui-hrd-info / slices=1 / no-opt-qp-pps / no-opt-ref-list-length-pps / no-multi-pass-opt-rps / scenecut-bias=0.05 / hist-threshold=0.03 / no-opt-cu-delta-qp / no-aq-motion / no-hdr10 / no-hdr10-opt / no-dhdr10-opt / no-idr-recovery-sei / analysis-reuse-level=0 / analysis-save-reuse-level=0 / analysis-load-reuse-level=0 / scale-factor=0 / refine-intra=0 / refine-inter=0 / refine-mv=1 / refine-ctu-distortion=0 / no-limit-sao / ctu-info=0 / no-lowpass-dct / refine-analysis-type=0 / copy-pic=1 / max-ausize-factor=1.0 / no-dynamic-refine / no-single-sei / no-hevc-aq / no-svt / no-field / qp-adaptation-range=1.00 / scenecut-aware-qp=0conformance-window-offsets / right=0 / bottom=0 / NTM4NzU= / decoder-max-rate=0 / no-vbv-live-multi-pass
  36. Default                                  : Yes
  37. Forced                                   : No
  38. Color range                              : Limited
  39. Color primaries                          : BT.709
  40. Transfer characteristics                 : BT.709
  41. Matrix coefficients                      : BT.709
  42. Audio #1
  43. ID                                       : 2
  44. Format                                   : E-AC-3
  45. Format/Info                              : Enhanced AC-3
  46. Commercial name                          : Dolby Digital Plus
  47. Codec ID                                 : A_EAC3
  48. Duration                                 : 2 h 14 min
  49. Bit rate mode                            : Constant
  50. Bit rate                                 : 1 023 kb/s
  51. Channel(s)                               : 6 channels
  52. Channel layout                           : L R C LFE Ls Rs
  53. Sampling rate                            : 48.0 kHz
  54. Frame rate                               : 93.750 FPS (512 SPF)
  55. Compression mode                         : Lossy
  56. Stream size                              : 984 MiB (11%)
  57. Language                                 : English
  58. Service kind                             : Complete Main
  59. Default                                  : Yes
  60. Forced                                   : No
  61. Audio #2
  62. ID                                       : 3
  63. Format                                   : Opus
  64. Codec ID                                 : A_OPUS
  65. Duration                                 : 2 h 14 min
  66. Bit rate                                 : 165 kb/s
  67. Channel(s)                               : 6 channels
  68. Channel layout                           : L R C Ls Rs Cb LFE
  69. Sampling rate                            : 48.0 kHz
  70. Frame rate                               : 50.000 FPS (960 SPF)
  71. Compression mode                         : Lossy
  72. Stream size                              : 159 MiB (2%)
  73. Title                                    : Commentary
  74. Writing library                          : opusenc from opus-tools 0.2-3-gf5f571b
  75. Language                                 : English
  76. Default                                  : No
  77. Forced                                   : No
  78. ENCODER_OPTIONS                          : --bitrate 224
  79. Text #1
  80. ID                                       : 4
  81. ID in the original source medium         : 4608 (0x1200)
  82. Format                                   : PGS
  83. Muxing mode                              : zlib
  84. Codec ID                                 : S_HDMV/PGS
  85. Codec ID/Info                            : Picture based subtitle format used on BDs/HD-DVDs
  86. Duration                                 : 2 h 6 min
  87. Bit rate                                 : 16.5 kb/s
  88. Count of elements                        : 2544
  89. Stream size                              : 14.9 MiB (0%)
  90. Language                                 : English
  91. Default                                  : No
  92. Forced                                   : No
  93. Original source medium                   : Blu-ray
  94. Text #2
  95. ID                                       : 5
  96. ID in the original source medium         : 4609 (0x1201)
  97. Format                                   : PGS
  98. Muxing mode                              : zlib
  99. Codec ID                                 : S_HDMV/PGS
  100. Codec ID/Info                            : Picture based subtitle format used on BDs/HD-DVDs
  101. Duration                                 : 2 h 3 min
  102. Bit rate                                 : 20.5 kb/s
  103. Count of elements                        : 2138
  104. Stream size                              : 18.2 MiB (0%)
  105. Language                                 : English
  106. Default                                  : No
  107. Forced                                   : No
  108. Original source medium                   : Blu-ray
  109. Text #3
  110. ID                                       : 6
  111. ID in the original source medium         : 4610 (0x1202)
  112. Format                                   : PGS
  113. Muxing mode                              : zlib
  114. Codec ID                                 : S_HDMV/PGS
  115. Codec ID/Info                            : Picture based subtitle format used on BDs/HD-DVDs
  116. Duration                                 : 2 h 13 min
  117. Bit rate                                 : 17.4 kb/s
  118. Count of elements                        : 2156
  119. Stream size                              : 16.7 MiB (0%)
  120. Language                                 : French
  121. Default                                  : No
  122. Forced                                   : No
  123. Original source medium                   : Blu-ray
  124. Text #4
  125. ID                                       : 7
  126. ID in the original source medium         : 4611 (0x1203)
  127. Format                                   : PGS
  128. Muxing mode                              : zlib
  129. Codec ID                                 : S_HDMV/PGS
  130. Codec ID/Info                            : Picture based subtitle format used on BDs/HD-DVDs
  131. Duration                                 : 2 h 7 min
  132. Bit rate                                 : 21.5 kb/s
  133. Count of elements                        : 2188
  134. Stream size                              : 19.5 MiB (0%)
  135. Language                                 : Spanish
  136. Default                                  : No
  137. Forced                                   : No
  138. Original source medium                   : Blu-ray
  139. Text #5
  140. ID                                       : 8
  141. ID in the original source medium         : 4612 (0x1204)
  142. Format                                   : PGS
  143. Muxing mode                              : zlib
  144. Codec ID                                 : S_HDMV/PGS
  145. Codec ID/Info                            : Picture based subtitle format used on BDs/HD-DVDs
  146. Duration                                 : 2 h 7 min
  147. Bit rate                                 : 16.6 kb/s
  148. Count of elements                        : 2155
  149. Stream size                              : 15.2 MiB (0%)
  150. Title                                    : CHS
  151. Language                                 : Chinese
  152. Default                                  : Yes
  153. Forced                                   : No
  154. Original source medium                   : Blu-ray
  155. Text #6
  156. ID                                       : 9
  157. ID in the original source medium         : 4613 (0x1205)
  158. Format                                   : PGS
  159. Muxing mode                              : zlib
  160. Codec ID                                 : S_HDMV/PGS
  161. Codec ID/Info                            : Picture based subtitle format used on BDs/HD-DVDs
  162. Duration                                 : 2 h 7 min
  163. Bit rate                                 : 17.3 kb/s
  164. Count of elements                        : 2155
  165. Stream size                              : 15.7 MiB (0%)
  166. Title                                    : CHT
  167. Language                                 : Chinese
  168. Default                                  : No
  169. Forced                                   : No
  170. Original source medium                   : Blu-ray
  171. Menu
  172. 00:00:00.000                             : en:第 01 章
  173. 00:06:21.506                             : en:第 02 章
  174. 00:14:56.770                             : en:第 03 章
  175. 00:27:36.154                             : en:第 04 章
  176. 00:36:29.520                             : en:第 05 章
  177. 00:40:51.740                             : en:第 06 章
  178. 00:47:27.803                             : en:第 07 章
  179. 00:58:13.656                             : en:第 08 章
  180. 01:06:09.966                             : en:第 09 章
  181. 01:16:35.424                             : en:第 10 章
  182. 01:21:49.195                             : en:第 11 章
  183. 01:25:58.278                             : en:第 12 章
  184. 01:37:25.339                             : en:第 13 章
  185. 01:44:00.567                             : en:第 14 章
  186. 01:51:13.750                             : en:第 15 章
  187. 01:56:19.681                             : en:第 16 章
复制代码



保举请利用qBittorrent,utorrent,transmission等标准BT软件下载!以获得最快速度。奉求保种!





回复

使用道具 举报

蓝光币
467
发表于 2022-7-29 23:56:34 | 显示全部楼层

既然你诚信诚意的推荐了,那我就勉为其难的看看吧!蓝光电影网不走平凡路。
回复 支持 反对

使用道具 举报

懒得打字嘛,点击右侧快捷回复 【右侧内容,后台自定义】
您需要登录后才可以回帖 登录 | 立即加入

本版积分规则

Archiver|小黑屋| 蓝光电影网 |网站地图

Copyright © 2021 Comsenz Inc. Powered by 蓝光电影网

蓝光电影网

本站内容由用户自主分享和转载自互联网,转载目的在于传递更多信息,并不代表本网赞同其观点和对其真实性负责。

如有侵权、违反国家法律政策行为,请联系我们,我们会第一时间及时清除和处理!

举报反馈邮箱:[email protected]

快速回复 返回顶部 返回列表