找回密码

蓝光电影网

查看: 58|回复: 0

[剧情] 一路顺风[国语音轨/简繁英字幕].Godspeed.2016.Repack.BluRay.1080p.x265.10bit-MiniHD 5.26GB

[复制链接]
蓝光币
7
发表于 2022-7-29 01:57:28 | 显示全部楼层 |阅读模式


◎标  题 一帆风顺
◎译  名 Godspeed
◎片  名 一路順風
◎年  代 2016
◎产  地 中国台湾
◎类  别 剧情 / 笑剧 / 犯罪 / 冒险
◎语  言 汉语普通话 / 闽南语 / 粤语 / 泰语
◎上映日期 2016-11-18(中国台湾) / 2016-09-09(多伦多电影节)
◎IMDb评分 6.8/10 (756人评价)
◎IMDb链接 https://www.imdb.com/title/tt5952306/
◎豆瓣评分 7.6/10 (18054人评价)
◎豆瓣链接 https://movie.douban.com/subject/26769480/
◎片  长 111分钟
◎导  演 钟孟宏 Mong-Hong Chung
◎编  剧 钟孟宏 Mong-Hong Chung
◎演  员 许冠文 Michael Koon Man Hui
       纳豆 Nadow Lin
       戴立忍 Leon Dai
       吴中天 Chung-tien Wu
       庹宗华 Chung-Hua Tou
       陈以文 Yiwen Chen
       梁赫群 Vincent Liang
       黄健玮 Chien-wei Huang
       林美秀 Mei-hsiu Lin
       陈玉勋 Yu-Hsun Chen
       庄益增 Cres Chuang
       金士杰 Shih-Chieh King
       维他亚·潘斯林加姆 Vithaya Pansringarm
◎标  签 台湾 / 黑色诙谐 / 公路 / 犯罪 / 剧情 / 人生 / 2016 / 自力电影
◎简  介
    纳豆是一位送货的小弟,从小到大就没有做过任何端庄事,偷拐抢骗,最擅长偷。这个送货的工作,是他立定志向好好做人以后第一个工作。工作很纯真,就是几个星期一次把货送到南部。他处置这个工作已经有一段时候了,凡是是一早动身,午时到达,不到薄暮的时辰回到台北。南部的收货人,名字叫庹哥,是老板大宝很是好的朋友,纳豆所送的货就是来自泰国金三角的海洛英,而且有海洛英界的LV之称的双狮地球牌。                                                                      他送货的方式很是出格,就是在路边随手拦计程车,一路上就在计程车里,到达目标地下来,把工具交给客人,再坐着原车返来。此次他搭的计程车虽然有一些陈旧,可是看到司机一副悲观没故意机的样子,最初还是上了车,没多久他发现,司机带着浓浓的广东腔,本来这位司机师长是在很久之前来台的香港人。                                                                      老许在90年月来到台湾,起初来台时,他不晓得会待多久,但一天一天曩昔,不知不觉已经来台25年。就在他们把货送到目标地的时辰,现场发生了黑吃黑的工作,庹哥当下中枪身亡,货物及现款被洗劫而去,纳豆也被流弹所伤,老许跟纳豆甚至被关到一台宾士车的后车箱,深陷重围。                                                                      一帆风顺是一个祝愿,也是一种期待。可是一条长长的人生路,哪有能够顺风到底,经常转个弯,风向就变了。这支电影是希望在人生短短的一条路上,能重拾我们忘记的风光,或是拾回一点点,我们身为人已经具有的感情。
  1. ##### MediaInfo ######
  2. General
  3. Unique ID                                : 134456142740759637252636172686803719731 (0x65274FA7999AE1CFF88D0A9A564DD633)
  4. Complete name                            : Godspeed.2016.Repack.BluRay.1080p.x265.10bit-MiniHD.mkv
  5. Format                                   : Matroska
  6. Format version                           : Version 4
  7. File size                                : 5.26 GiB
  8. Duration                                 : 1 h 51 min
  9. Overall bit rate                         : 6 767 kb/s
  10. Encoded date                             : UTC 2021-03-04 10:56:54
  11. Writing application                      : mkvmerge v46.0.0 ('No Deeper Escape') 64-bit
  12. Writing library                          : libebml v1.3.10 + libmatroska v1.5.2
  13. Video
  14. ID                                       : 1
  15. Format                                   : HEVC
  16. Format/Info                              : High Efficiency Video Coding
  17. Format profile                           : Main [email protected]@Main
  18. Codec ID                                 : V_MPEGH/ISO/HEVC
  19. Duration                                 : 1 h 51 min
  20. Bit rate                                 : 5 841 kb/s
  21. Width                                    : 1 920 pixels
  22. Height                                   : 804 pixels
  23. Display aspect ratio                     : 2.40:1
  24. Frame rate mode                          : Constant
  25. Frame rate                               : 24.000 FPS
  26. Color space                              : YUV
  27. Chroma subsampling                       : 4:2:0
  28. Bit depth                                : 10 bits
  29. Bits/(Pixel*Frame)                       : 0.158
  30. Stream size                              : 4.54 GiB (86%)
  31. Writing library                          : x265 2.8+1-478bfe2b7673:[Windows][GCC 7.3.0][64 bit] 10bit
  32. Encoding settings                        : cpuid=538751111039 / frame-threads=4 / numa-pools=16 / wpp / no-pmode / no-pme / no-psnr / no-ssim / log-level=2 / csv / csv-log-level=0 / input-csp=1 / input-res=1920x804 / interlace=0 / total-frames=160224 / level-idc=0 / high-tier=1 / uhd-bd=0 / ref=5 / no-allow-non-conformance / no-repeat-headers / annexb / no-aud / no-hrd / info / hash=0 / no-temporal-layers / no-open-gop / min-keyint=1 / keyint=360 / gop-lookahead=0 / bframes=9 / b-adapt=2 / b-pyramid / bframe-bias=0 / rc-lookahead=60 / lookahead-slices=4 / NTM4NzU=uuDQuD2mJt9fsCf / scenecut=40 / radl=0 / no-intra-refresh / ctu=32 / min-cu-size=8 / rect / no-amp / max-tu-size=16 / tu-inter-depth=2 / tu-intra-depth=2 / limit-tu=4 / rdoq-level=1 / dynamic-rd=0.00 / ssim-rd / signhide / no-tskip / nr-intra=0 / nr-inter=0 / no-constrained-intra / no-strong-intra-smoothing / max-merge=3 / limit-refs=2 / limit-modes / me=3 / subme=5 / merange=25 / temporal-mvp / weightp / weightb / no-analyze-src-pics / deblock=-1:-1 / no-sao / no-sao-non-deblock / rd=4 / no-early-skip / rskip / no-fast-intra / no-tskip-fast / no-cu-lossless / b-intra / no-splitrd-skip / rdpenalty=1 / psy-rd=0.00 / psy-rdoq=5.00 / no-rd-refine / no-lossless / cbqpoffs=-2 / crqpoffs=-2 / rc=crf / crf=16.0 / qcomp=0.70 / qpstep=4 / stats-write=0 / stats-read=0 / ipratio=1.40 / pbratio=1.30 / aq-mode=1 / aq-strength=0.80 / cutree / zone-count=0 / no-strict-cbr / qg-size=16 / no-rc-grain / qpmax=69 / qpmin=0 / no-const-vbv / sar=0 / overscan=0 / videoformat=5 / range=0 / colorprim=1 / transfer=2 / colormatrix=2 / chromaloc=0 / display-window=0 / max-cll=0,0 / min-luma=0 / max-luma=1023 / log2-max-poc-lsb=8 / vui-timing-info / vui-hrd-info / slices=1 / no-opt-qp-pps / no-opt-ref-list-length-pps / no-multi-pass-opt-rps / scenecut-bias=0.05 / no-opt-cu-delta-qp / no-aq-motion / no-hdr / no-hdr-opt / no-dhdr10-opt / no-idr-recovery-sei / analysis-reuse-level=5 / scale-factor=0 / refine-intra=0 / refine-inter=0 / refine-mv=0 / no-limit-sao / ctu-info=0 / no-lowpass-dct / refine-mv-type=0 / copy-pic=1 / max-ausize-factor=1.0 / no-dynamic-refine / no-single-sei
  33. Language                                 : Chinese
  34. Default                                  : Yes
  35. Forced                                   : No
  36. Color range                              : Limited
  37. Color primaries                          : BT.709
  38. Audio #1
  39. ID                                       : 2
  40. Format                                   : AC-3
  41. Format/Info                              : Audio Coding 3
  42. Commercial name                          : Dolby Digital
  43. Codec ID                                 : A_AC3
  44. Duration                                 : 1 h 51 min
  45. Bit rate mode                            : Constant
  46. Bit rate                                 : 640 kb/s
  47. Channel(s)                               : 6 channels
  48. Channel layout                           : L R C LFE Ls Rs
  49. Sampling rate                            : 48.0 kHz
  50. Frame rate                               : 31.250 FPS (1536 SPF)
  51. Compression mode                         : Lossy
  52. Stream size                              : 509 MiB (9%)
  53. Title                                    : 国语
  54. Language                                 : Chinese
  55. Service kind                             : Complete Main
  56. Default                                  : Yes
  57. Forced                                   : No
  58. Audio #2
  59. ID                                       : 3
  60. Format                                   : AC-3
  61. Format/Info                              : Audio Coding 3
  62. Commercial name                          : Dolby Digital
  63. Codec ID                                 : A_AC3
  64. Duration                                 : 1 h 51 min
  65. Bit rate mode                            : Constant
  66. Bit rate                                 : 224 kb/s
  67. Channel(s)                               : 2 channels
  68. Channel layout                           : L R
  69. Sampling rate                            : 48.0 kHz
  70. Frame rate                               : 31.250 FPS (1536 SPF)
  71. Compression mode                         : Lossy
  72. Stream size                              : 178 MiB (3%)
  73. Title                                    : 国导
  74. Language                                 : Chinese
  75. Service kind                             : Complete Main
  76. Default                                  : No
  77. Forced                                   : No
  78. Text #1
  79. ID                                       : 4
  80. ID in the original source medium         : 4609 (0x1201)
  81. Format                                   : PGS
  82. Muxing mode                              : zlib
  83. Codec ID                                 : S_HDMV/PGS
  84. Codec ID/Info                            : Picture based subtitle format used on BDs/HD-DVDs
  85. Duration                                 : 1 h 46 min
  86. Bit rate                                 : 45.0 kb/s
  87. Count of elements                        : 2690
  88. Stream size                              : 34.2 MiB (1%)
  89. Language                                 : English
  90. Default                                  : No
  91. Forced                                   : No
  92. Original source medium                   : Blu-ray
  93. Text #2
  94. ID                                       : 5
  95. Format                                   : PGS
  96. Muxing mode                              : zlib
  97. Codec ID                                 : S_HDMV/PGS
  98. Codec ID/Info                            : Picture based subtitle format used on BDs/HD-DVDs
  99. Duration                                 : 1 h 46 min
  100. Bit rate                                 : 28.8 kb/s
  101. Count of elements                        : 2698
  102. Stream size                              : 21.8 MiB (0%)
  103. Title                                    : Simplified Chinese
  104. Language                                 : Chinese
  105. Default                                  : Yes
  106. Forced                                   : No
  107. Text #3
  108. ID                                       : 6
  109. ID in the original source medium         : 4608 (0x1200)
  110. Format                                   : PGS
  111. Muxing mode                              : zlib
  112. Codec ID                                 : S_HDMV/PGS
  113. Codec ID/Info                            : Picture based subtitle format used on BDs/HD-DVDs
  114. Duration                                 : 1 h 46 min
  115. Bit rate                                 : 37.6 kb/s
  116. Count of elements                        : 2698
  117. Stream size                              : 28.5 MiB (1%)
  118. Title                                    : Traditional Chinese
  119. Language                                 : Chinese
  120. Default                                  : No
  121. Forced                                   : No
  122. Original source medium                   : Blu-ray
  123. Menu
  124. 00:00:00.000                             : en:Chapter 01
  125. 00:15:18.875                             : en:Chapter 02
  126. 00:22:24.875                             : en:Chapter 03
  127. 00:31:38.541                             : en:Chapter 04
  128. 00:43:44.833                             : en:Chapter 05
  129. 00:55:40.000                             : en:Chapter 06
  130. 01:05:00.333                             : en:Chapter 07
  131. 01:11:11.666                             : en:Chapter 08
  132. 01:25:16.291                             : en:Chapter 09
  133. 01:36:40.541                             : en:Chapter 10
复制代码

















保举请利用qBittorrent,utorrent,transmission等标准BT软件下载!以获得最快速度。奉求保种!





回复

使用道具 举报

懒得打字嘛,点击右侧快捷回复 【右侧内容,后台自定义】
您需要登录后才可以回帖 登录 | 立即加入

本版积分规则

Archiver|小黑屋| 蓝光电影网 |网站地图

Copyright © 2021 Comsenz Inc. Powered by 蓝光电影网

蓝光电影网

本站内容由用户自主分享和转载自互联网,转载目的在于传递更多信息,并不代表本网赞同其观点和对其真实性负责。

如有侵权、违反国家法律政策行为,请联系我们,我们会第一时间及时清除和处理!

举报反馈邮箱:[email protected]

快速回复 返回顶部 返回列表