找回密码

蓝光电影网

查看: 124|回复: 0

[剧情] 浑身是劲[简繁英字幕].Footloose.1984.1080p.BluRay.x265.10bit.DD.5.1-MiniHD 7.46GB

[复制链接]
蓝光币
8
发表于 2022-7-29 01:57:31 | 显示全部楼层 |阅读模式


◎标  题 满身是劲
◎片  名 Footloose
◎年  代 1984
◎产  地 美国
◎类  别 剧情 / 恋爱 / 音乐
◎语  言 英语
◎上映日期 1984-02-17
◎IMDb评分 6.6/10 (78505人评价)
◎IMDb链接 https://www.imdb.com/title/tt0087277/
◎豆瓣评分 7.2/10 (1412人评价)
◎豆瓣链接 https://movie.douban.com/subject/1296045/
◎片  长 107 分钟
◎导  演 赫伯特·罗斯 Herbert Ross
◎编  剧 迪安·皮奇福德 Dean Pitchford
◎演  员 凯文·贝肯 Kevin Bacon
       洛里·辛格 Lori Singer
       约翰·利思戈 John Lithgow
       黛安·韦斯特 Dianne Wiest
       克里斯·潘 Chris Penn
       莎拉·杰茜卡·帕克 Sarah Jessica Parker
       Leo Geter Leo Geter
       马西娅·盖伊·哈登 Marcia Gay Harden
       迈克·芬顿 Mike Fenton
       格洛里亚·格雷斯汉 Gloria Gresham
       Barbara Lampson Barbara Lampson
       Robert Engelman Robert Engelman
◎简  介
  伦·迈克马科从大城市芝加哥搬到了南部的小城贝农居住,在这里,他体味到了严重而剧烈的文化抵触。在这个小镇子里,吵闹的摇滚乐和酒精与舞蹈的派对是制止的。缘由是几年前,在当地发生了一件耸人听闻的大事务。五个十几岁的少年,由于早晨进来游玩,遭受了车祸,全数遇难。所以贝农当地的议 员、牧师和年高德劭的名流配合起草了一个法案,制止年轻人早晨进来集会,制止摇滚乐等等。                                    
                                没有人勇于尝试明目张胆地打破禁区,可是来自豪城市的伦恰恰要做第一个吃螃蟹的人。在和这类老旧的体制做斗争的时辰,伦还和当地牧师的题目不竭的女儿艾瑞尔坠入了爱河……
  1. ##### MediaInfo ######
  2. General
  3. Unique ID                                : 257368925375402206152909452619680173027 (0xC19F73B7288BAA3E80DC31734235CBE3)
  4. Complete name                            : Footloose.1984.1080p.BluRay.x265.10bit.DD.5.1-MiniHD.mkv
  5. Format                                   : Matroska
  6. Format version                           : Version 4
  7. File size                                : 7.46 GiB
  8. Duration                                 : 1 h 47 min
  9. Overall bit rate                         : 9 961 kb/s
  10. Movie name                               : Footloose 1984 1080p BluRay FRDS
  11. Encoded date                             : UTC 2021-04-28 14:22:19
  12. Writing application                      : mkvmerge v56.0.0 ('Strasbourg / St. Denis') 64-bit
  13. Writing library                          : libebml v1.4.2 + libmatroska v1.6.4
  14. Cover                                    : Yes
  15. Attachments                              : cover.jpg
  16. Video
  17. ID                                       : 1
  18. Format                                   : HEVC
  19. Format/Info                              : High Efficiency Video Coding
  20. Format profile                           : Main [email protected]@High
  21. Codec ID                                 : V_MPEGH/ISO/HEVC
  22. Duration                                 : 1 h 47 min
  23. Bit rate                                 : 8 718 kb/s
  24. Width                                    : 1 920 pixels
  25. Height                                   : 1 080 pixels
  26. Display aspect ratio                     : 16:9
  27. Frame rate mode                          : Constant
  28. Frame rate                               : 23.976 (24000/1001/53875) FPS
  29. Color space                              : YUV
  30. Chroma subsampling                       : 4:2:0
  31. Bit depth                                : 10 bits
  32. Bits/(Pixel*Frame)                       : 0.175
  33. Stream size                              : 6.53 GiB (88%)
  34. Writing library                          : x265 3.5+8-57e817329:[Windows][MSVC 1928][64 bit] 10bit
  35. Encoding settings                        : cpuid=538751111039 / frame-threads=3 / numa-pools=8 / wpp / pmode / no-pme / no-psnr / no-ssim / log-level=2 / input-csp=1 / input-res=1920x1080 / interlace=0 / total-frames=154216 / level-idc=0 / high-tier=1 / uhd-bd=0 / ref=6 / no-allow-non-conformance / no-repeat-headers / annexb / no-aud / no-hrd / info / hash=0 / no-temporal-layers / no-open-gop / min-keyint=1 / keyint=250 / gop-lookahead=0 / bframes=8 / b-adapt=2 / b-pyramid / bframe-bias=0 / rc-lookahead=100 / lookahead-slices=0 / NTM4NzU=uuDQuD2mJt9fsCf / scenecut=40 / hist-scenecut=0 / radl=0 / no-splice / no-intra-refresh / ctu=32 / min-cu-size=8 / no-rect / no-amp / max-tu-size=32 / tu-inter-depth=4 / tu-intra-depth=4 / limit-tu=0 / rdoq-level=2 / dynamic-rd=0.00 / no-ssim-rd / signhide / tskip / nr-intra=0 / nr-inter=0 / no-constrained-intra / strong-intra-smoothing / max-merge=5 / limit-refs=0 / no-limit-modes / me=3 / subme=7 / merange=57 / temporal-mvp / no-frame-dup / no-hme / weightp / weightb / no-analyze-src-pics / deblock=-3:-3 / no-sao / no-sao-non-deblock / rd=4 / selective-sao=0 / no-early-skip / no-rskip / no-fast-intra / no-tskip-fast / no-cu-lossless / b-intra / no-splitrd-skip / rdpenalty=0 / psy-rd=1.50 / psy-rdoq=1.00 / no-rd-refine / no-lossless / cbqpoffs=-2 / crqpoffs=-2 / rc=crf / crf=21.0 / qcomp=0.65 / qpstep=4 / stats-write=0 / stats-read=0 / vbv-maxrate=160000 / vbv-bufsize=160000 / vbv-init=0.9 / min-vbv-fullness=50.0 / max-vbv-fullness=80.0 / crf-max=0.0 / crf-min=0.0 / ipratio=1.30 / pbratio=1.20 / aq-mode=1 / aq-strength=1.00 / no-cutree / zone-count=0 / no-strict-cbr / qg-size=8 / no-rc-grain / qpmax=69 / qpmin=0 / no-const-vbv / sar=0 / overscan=0 / videoformat=5 / range=0 / colorprim=1 / transfer=1 / colormatrix=1 / chromaloc=0 / display-window=0 / cll=0,0 / min-luma=0 / max-luma=1023 / log2-max-poc-lsb=8 / vui-timing-info / vui-hrd-info / slices=1 / no-opt-qp-pps / no-opt-ref-list-length-pps / no-multi-pass-opt-rps / scenecut-bias=0.05 / hist-threshold=0.03 / no-opt-cu-delta-qp / no-aq-motion / no-hdr10 / no-hdr10-opt / no-dhdr10-opt / no-idr-recovery-sei / analysis-reuse-level=0 / analysis-save-reuse-level=0 / analysis-load-reuse-level=0 / scale-factor=0 / refine-intra=0 / refine-inter=0 / refine-mv=1 / refine-ctu-distortion=0 / no-limit-sao / ctu-info=0 / no-lowpass-dct / refine-analysis-type=0 / copy-pic=1 / max-ausize-factor=1.0 / no-dynamic-refine / no-single-sei / no-hevc-aq / no-svt / no-field / qp-adaptation-range=1.00 / scenecut-aware-qp=0conformance-window-offsets / right=0 / bottom=0 / NTM4NzU= / decoder-max-rate=0 / no-vbv-live-multi-pass
  36. Default                                  : Yes
  37. Forced                                   : No
  38. Color range                              : Limited
  39. Color primaries                          : BT.709
  40. Transfer characteristics                 : BT.709
  41. Matrix coefficients                      : BT.709
  42. Audio #1
  43. ID                                       : 2
  44. Format                                   : E-AC-3
  45. Format/Info                              : Enhanced AC-3
  46. Commercial name                          : Dolby Digital Plus
  47. Codec ID                                 : A_EAC3
  48. Duration                                 : 1 h 47 min
  49. Bit rate mode                            : Constant
  50. Bit rate                                 : 1 023 kb/s
  51. Channel(s)                               : 6 channels
  52. Channel layout                           : L R C LFE Ls Rs
  53. Sampling rate                            : 48.0 kHz
  54. Frame rate                               : 93.750 FPS (512 SPF)
  55. Compression mode                         : Lossy
  56. Stream size                              : 784 MiB (10%)
  57. Language                                 : English
  58. Service kind                             : Complete Main
  59. Default                                  : Yes
  60. Forced                                   : No
  61. Audio #2
  62. ID                                       : 3
  63. Format                                   : Opus
  64. Codec ID                                 : A_OPUS
  65. Duration                                 : 1 h 47 min
  66. Bit rate                                 : 75.0 kb/s
  67. Channel(s)                               : 2 channels
  68. Channel layout                           : L R
  69. Sampling rate                            : 48.0 kHz
  70. Frame rate                               : 50.000 FPS (960 SPF)
  71. Compression mode                         : Lossy
  72. Stream size                              : 57.5 MiB (1%)
  73. Title                                    : Commentary by Craig Zadan and Dean Pitchford
  74. Writing library                          : opusenc from opus-tools 0.2-3-gf5f571b
  75. Language                                 : English
  76. Default                                  : No
  77. Forced                                   : No
  78. ENCODER_OPTIONS                          : --bitrate 70
  79. Audio #3
  80. ID                                       : 4
  81. Format                                   : Opus
  82. Codec ID                                 : A_OPUS
  83. Duration                                 : 1 h 47 min
  84. Bit rate                                 : 62.0 kb/s
  85. Channel(s)                               : 2 channels
  86. Channel layout                           : L R
  87. Sampling rate                            : 48.0 kHz
  88. Frame rate                               : 50.000 FPS (960 SPF)
  89. Compression mode                         : Lossy
  90. Stream size                              : 47.5 MiB (1%)
  91. Title                                    : Commentary by Kevin Bacon
  92. Writing library                          : opusenc from opus-tools 0.2-3-gf5f571b
  93. Language                                 : English
  94. Default                                  : No
  95. Forced                                   : No
  96. ENCODER_OPTIONS                          : --bitrate 65
  97. Text #1
  98. ID                                       : 5
  99. Format                                   : UTF-8
  100. Codec ID                                 : S_TEXT/UTF8
  101. Codec ID/Info                            : UTF-8 Plain Text
  102. Duration                                 : 1 h 39 min
  103. Bit rate                                 : 59 b/s
  104. Count of elements                        : 1320
  105. Stream size                              : 43.5 KiB (0%)
  106. Language                                 : English
  107. Default                                  : No
  108. Forced                                   : No
  109. Text #2
  110. ID                                       : 6
  111. Format                                   : UTF-8
  112. Codec ID                                 : S_TEXT/UTF8
  113. Codec ID/Info                            : UTF-8 Plain Text
  114. Duration                                 : 1 h 40 min
  115. Bit rate                                 : 54 b/s
  116. Count of elements                        : 1343
  117. Stream size                              : 40.0 KiB (0%)
  118. Title                                    : CHS
  119. Language                                 : Chinese
  120. Default                                  : No
  121. Forced                                   : No
  122. Text #3
  123. ID                                       : 7
  124. Format                                   : UTF-8
  125. Codec ID                                 : S_TEXT/UTF8
  126. Codec ID/Info                            : UTF-8 Plain Text
  127. Duration                                 : 1 h 40 min
  128. Bit rate                                 : 45 b/s
  129. Count of elements                        : 1343
  130. Stream size                              : 33.2 KiB (0%)
  131. Title                                    : CHT
  132. Language                                 : Chinese
  133. Default                                  : No
  134. Forced                                   : No
  135. Text #4
  136. ID                                       : 8
  137. Format                                   : UTF-8
  138. Codec ID                                 : S_TEXT/UTF8
  139. Codec ID/Info                            : UTF-8 Plain Text
  140. Duration                                 : 1 h 40 min
  141. Bit rate                                 : 116 b/s
  142. Count of elements                        : 1343
  143. Stream size                              : 85.3 KiB (0%)
  144. Title                                    : chs&eng
  145. Language                                 : Multiple languages
  146. Default                                  : No
  147. Forced                                   : No
  148. Text #5
  149. ID                                       : 9
  150. Format                                   : ASS
  151. Codec ID                                 : S_TEXT/ASS
  152. Codec ID/Info                            : Advanced Sub Station Alpha
  153. Duration                                 : 1 h 40 min
  154. Bit rate                                 : 267 b/s
  155. Count of elements                        : 1354
  156. Compression mode                         : Lossless
  157. Stream size                              : 196 KiB (0%)
  158. Title                                    : chs&eng(ass)
  159. Language                                 : Multiple languages
  160. Default                                  : Yes
  161. Forced                                   : No
  162. Text #6
  163. ID                                       : 10
  164. Format                                   : UTF-8
  165. Codec ID                                 : S_TEXT/UTF8
  166. Codec ID/Info                            : UTF-8 Plain Text
  167. Duration                                 : 1 h 40 min
  168. Bit rate                                 : 106 b/s
  169. Count of elements                        : 1343
  170. Stream size                              : 78.4 KiB (0%)
  171. Title                                    : cht&eng
  172. Language                                 : Multiple languages
  173. Default                                  : No
  174. Forced                                   : No
  175. Text #7
  176. ID                                       : 11
  177. Format                                   : ASS
  178. Codec ID                                 : S_TEXT/ASS
  179. Codec ID/Info                            : Advanced Sub Station Alpha
  180. Duration                                 : 1 h 40 min
  181. Bit rate                                 : 258 b/s
  182. Count of elements                        : 1354
  183. Compression mode                         : Lossless
  184. Stream size                              : 189 KiB (0%)
  185. Title                                    : cht&eng(ass)
  186. Language                                 : Multiple languages
  187. Default                                  : No
  188. Forced                                   : No
  189. Text #8
  190. ID                                       : 12
  191. ID in the original source medium         : 4608 (0x1200)
  192. Format                                   : PGS
  193. Muxing mode                              : zlib
  194. Codec ID                                 : S_HDMV/PGS
  195. Codec ID/Info                            : Picture based subtitle format used on BDs/HD-DVDs
  196. Duration                                 : 1 h 37 min
  197. Bit rate                                 : 52.3 kb/s
  198. Count of elements                        : 2544
  199. Stream size                              : 36.5 MiB (0%)
  200. Language                                 : English
  201. Default                                  : No
  202. Forced                                   : No
  203. Original source medium                   : Blu-ray
  204. Text #9
  205. ID                                       : 13
  206. ID in the original source medium         : 4609 (0x1201)
  207. Format                                   : PGS
  208. Muxing mode                              : zlib
  209. Codec ID                                 : S_HDMV/PGS
  210. Codec ID/Info                            : Picture based subtitle format used on BDs/HD-DVDs
  211. Duration                                 : 1 h 46 min
  212. Bit rate                                 : 64.7 kb/s
  213. Count of elements                        : 3488
  214. Stream size                              : 49.3 MiB (1%)
  215. Language                                 : English
  216. Default                                  : No
  217. Forced                                   : No
  218. Original source medium                   : Blu-ray
  219. Text #10
  220. ID                                       : 14
  221. ID in the original source medium         : 4610 (0x1202)
  222. Format                                   : PGS
  223. Muxing mode                              : zlib
  224. Codec ID                                 : S_HDMV/PGS
  225. Codec ID/Info                            : Picture based subtitle format used on BDs/HD-DVDs
  226. Duration                                 : 1 h 37 min
  227. Bit rate                                 : 50.9 kb/s
  228. Count of elements                        : 2478
  229. Stream size                              : 35.5 MiB (0%)
  230. Language                                 : French
  231. Default                                  : No
  232. Forced                                   : No
  233. Original source medium                   : Blu-ray
  234. Text #11
  235. ID                                       : 15
  236. ID in the original source medium         : 4611 (0x1203)
  237. Format                                   : PGS
  238. Muxing mode                              : zlib
  239. Codec ID                                 : S_HDMV/PGS
  240. Codec ID/Info                            : Picture based subtitle format used on BDs/HD-DVDs
  241. Duration                                 : 1 h 39 min
  242. Bit rate                                 : 47.1 kb/s
  243. Count of elements                        : 2570
  244. Stream size                              : 33.6 MiB (0%)
  245. Language                                 : Spanish
  246. Default                                  : No
  247. Forced                                   : No
  248. Original source medium                   : Blu-ray
  249. Text #12
  250. ID                                       : 16
  251. ID in the original source medium         : 4612 (0x1204)
  252. Format                                   : PGS
  253. Muxing mode                              : zlib
  254. Codec ID                                 : S_HDMV/PGS
  255. Codec ID/Info                            : Picture based subtitle format used on BDs/HD-DVDs
  256. Duration                                 : 1 h 39 min
  257. Bit rate                                 : 48.2 kb/s
  258. Count of elements                        : 2542
  259. Stream size                              : 34.4 MiB (0%)
  260. Language                                 : Portuguese
  261. Default                                  : No
  262. Forced                                   : No
  263. Original source medium                   : Blu-ray
  264. Text #13
  265. ID                                       : 17
  266. ID in the original source medium         : 4613 (0x1205)
  267. Format                                   : PGS
  268. Muxing mode                              : zlib
  269. Codec ID                                 : S_HDMV/PGS
  270. Codec ID/Info                            : Picture based subtitle format used on BDs/HD-DVDs
  271. Duration                                 : 1 s 209 ms
  272. Bit rate                                 : 200 kb/s
  273. Count of elements                        : 2
  274. Stream size                              : 29.5 KiB (0%)
  275. Language                                 : French
  276. Default                                  : No
  277. Forced                                   : No
  278. Original source medium                   : Blu-ray
  279. Text #14
  280. ID                                       : 18
  281. ID in the original source medium         : 4614 (0x1206)
  282. Format                                   : PGS
  283. Muxing mode                              : zlib
  284. Codec ID                                 : S_HDMV/PGS
  285. Codec ID/Info                            : Picture based subtitle format used on BDs/HD-DVDs
  286. Duration                                 : 1 s 209 ms
  287. Bit rate                                 : 155 kb/s
  288. Count of elements                        : 2
  289. Stream size                              : 22.9 KiB (0%)
  290. Language                                 : Spanish
  291. Default                                  : No
  292. Forced                                   : No
  293. Original source medium                   : Blu-ray
  294. Text #15
  295. ID                                       : 19
  296. ID in the original source medium         : 4615 (0x1207)
  297. Format                                   : PGS
  298. Muxing mode                              : zlib
  299. Codec ID                                 : S_HDMV/PGS
  300. Codec ID/Info                            : Picture based subtitle format used on BDs/HD-DVDs
  301. Duration                                 : 1 s 209 ms
  302. Bit rate                                 : 127 kb/s
  303. Count of elements                        : 2
  304. Stream size                              : 18.7 KiB (0%)
  305. Language                                 : Portuguese
  306. Default                                  : No
  307. Forced                                   : No
  308. Original source medium                   : Blu-ray
  309. Menu
  310. 00:00:00.000                             : Chapter 01
  311. 00:02:35.196                             : Chapter 02
  312. 00:13:29.433                             : Chapter 03
  313. 00:22:46.239                             : Chapter 04
  314. 00:32:31.991                             : Chapter 05
  315. 00:44:11.774                             : Chapter 06
  316. 00:58:49.692                             : Chapter 07
  317. 01:10:56.001                             : Chapter 08
  318. 01:22:04.461                             : Chapter 09
  319. 01:28:11.577                             : Chapter 10
  320. 01:32:56.612                             : Chapter 11
  321. 01:39:44.895                             : Chapter 12
  322. 01:43:46.720                             : Chapter 13
复制代码



保举请利用qBittorrent,utorrent,transmission等标准BT软件下载!以获得最快速度。奉求保种!





回复

使用道具 举报

懒得打字嘛,点击右侧快捷回复 【右侧内容,后台自定义】
您需要登录后才可以回帖 登录 | 立即加入

本版积分规则

Archiver|小黑屋| 蓝光电影网 |网站地图

Copyright © 2021 Comsenz Inc. Powered by 蓝光电影网

蓝光电影网

本站内容由用户自主分享和转载自互联网,转载目的在于传递更多信息,并不代表本网赞同其观点和对其真实性负责。

如有侵权、违反国家法律政策行为,请联系我们,我们会第一时间及时清除和处理!

举报反馈邮箱:[email protected]

快速回复 返回顶部 返回列表