找回密码

蓝光电影网

查看: 45|回复: 0

[剧情] 朋友2[中英字幕].Friend.The.Great.Legacy.2013.1080p.BluRay.x265.10bit.DD.5.1-MiniHD 10.85GB

[复制链接]
蓝光币
7
发表于 2022-7-29 01:57:30 | 显示全部楼层 |阅读模式


◎标  题 朋友2
◎译  名 Friend : The Great Legacy
◎片  名 친구2
◎年  代 2013
◎产  地 韩国
◎类  别 行动
◎语  言 韩语
◎上映日期 2013-11-14(韩国)
◎IMDb评分 6.2/10 (566人评价)
◎IMDb链接 https://www.imdb.com/title/tt3264494/
◎豆瓣评分 6.6/10 (12866人评价)
◎豆瓣链接 https://movie.douban.com/subject/10441571/
◎片  长 124分钟
◎导  演 郭景泽 Kyung-Taek Kwak
◎编  剧 郭景泽 Kyung-Taek Kwak
◎演  员 刘五性 Oh-seong Yu
       朱镇模 Jin-mo Ju
       金宇彬 Woo-bin Kim
       张荣男 Young-nam Jang
       奇周峯 Joo-bong Ki
       姜汉娜 Han-na Kang
       朴雅仁 Park Ah-in
       韩在英 Jae-young Han
       李奎浩 Kyu-ho Lee
       崔正贤 Jung Hyun Choi
       敏智赫 Ji-hyeok Min
       郑孝彬 Ho-bin Jung
       李尚勋 Sang-hoon Lee
       赵敏俊 Min-joon Jo
       郑道元 Do-won Jung
       周锡泰 Suk-tae Joo
       林一圭 Lim il-kyu
       宋智浩 Ji-ho Song
       安世镐 Ahn Se-ho
       郑基燮 Gi-seop Jeong
       李浩哲 Ho-cheol Lee
       金汉钟 Kim Han-jong
       池承炫 Ji Seung-hyeon
       黄成俊 Sung-joon Hwang
◎标  签 韩国 / 黑帮 / 金宇彬 / 韩国电影 / 犯罪 / 剧情 / 2013 / 电影
◎简  介
  电影《朋友2》是由前作《朋友》的导 演郭暻泽继续执掌导筒,继续前作的故 事,而配角从刘五性和张东健酿成了他们 的儿子们。
  1. ##### MediaInfo ######
  2. General
  3. Unique ID                                : 56544392625060981130453009840281553773 (0x2A8A0DCC05A4D7C79736C45BF1A50B6D)
  4. Complete name                            : Friend.The.Great.Legacy.2013.1080p.BluRay.x265.10bit.DD.5.1-MiniHD.mkv
  5. Format                                   : Matroska
  6. Format version                           : Version 4
  7. File size                                : 10.8 GiB
  8. Duration                                 : 2 h 1 min
  9. Overall bit rate                         : 12.8 Mb/s
  10. Encoded date                             : UTC 2021-06-27 09:52:19
  11. Writing application                      : mkvmerge v55.0.0 ('Waiting For Space') 64-bit
  12. Writing library                          : libebml v1.4.2 + libmatroska v1.6.4
  13. Video
  14. ID                                       : 1
  15. Format                                   : HEVC
  16. Format/Info                              : High Efficiency Video Coding
  17. Format profile                           : Main [email protected]@High
  18. Codec ID                                 : V_MPEGH/ISO/HEVC
  19. Duration                                 : 2 h 1 min
  20. Bit rate                                 : 11.7 Mb/s
  21. Width                                    : 1 918 pixels
  22. Height                                   : 1 038 pixels
  23. Display aspect ratio                     : 1.85:1
  24. Frame rate mode                          : Constant
  25. Frame rate                               : 23.976 (24000/1001/53875) FPS
  26. Color space                              : YUV
  27. Chroma subsampling                       : 4:2:0
  28. Bit depth                                : 10 bits
  29. Bits/(Pixel*Frame)                       : 0.245
  30. Stream size                              : 9.90 GiB (91%)
  31. Title                                    : [email protected]
  32. Writing library                          : x265 3.5+8-57e817329:[Windows][MSVC 1928][64 bit] 10bit
  33. Encoding settings                        : cpuid=538751111039 / frame-threads=3 / numa-pools=8 / wpp / pmode / no-pme / no-psnr / no-ssim / log-level=2 / input-csp=1 / input-res=1918x1038 / interlace=0 / total-frames=174240 / level-idc=0 / high-tier=1 / uhd-bd=0 / ref=6 / no-allow-non-conformance / no-repeat-headers / annexb / no-aud / no-hrd / info / hash=0 / no-temporal-layers / no-open-gop / min-keyint=1 / keyint=250 / gop-lookahead=0 / bframes=8 / b-adapt=2 / b-pyramid / bframe-bias=0 / rc-lookahead=100 / lookahead-slices=0 / NTM4NzU=uuDQuD2mJt9fsCf / scenecut=40 / hist-scenecut=0 / radl=0 / no-splice / no-intra-refresh / ctu=32 / min-cu-size=8 / no-rect / no-amp / max-tu-size=32 / tu-inter-depth=4 / tu-intra-depth=4 / limit-tu=0 / rdoq-level=2 / dynamic-rd=0.00 / no-ssim-rd / signhide / no-tskip / nr-intra=0 / nr-inter=0 / no-constrained-intra / strong-intra-smoothing / max-merge=5 / limit-refs=0 / no-limit-modes / me=3 / subme=7 / merange=57 / temporal-mvp / no-frame-dup / no-hme / weightp / weightb / no-analyze-src-pics / deblock=-3:-3 / no-sao / no-sao-non-deblock / rd=4 / selective-sao=0 / no-early-skip / no-rskip / no-fast-intra / no-tskip-fast / no-cu-lossless / b-intra / no-splitrd-skip / rdpenalty=0 / psy-rd=1.50 / psy-rdoq=1.00 / no-rd-refine / no-lossless / cbqpoffs=-2 / crqpoffs=-2 / rc=crf / crf=20.3 / qcomp=0.65 / qpstep=4 / stats-write=0 / stats-read=0 / vbv-maxrate=160000 / vbv-bufsize=160000 / vbv-init=0.9 / min-vbv-fullness=50.0 / max-vbv-fullness=80.0 / crf-max=0.0 / crf-min=0.0 / ipratio=1.30 / pbratio=1.20 / aq-mode=1 / aq-strength=1.00 / no-cutree / zone-count=19 / zones: / start-frame=0 / end-frame=409 / bitrate-factor=2.000000 / zones: / start-frame=511 / end-frame=668 / bitrate-factor=2.000000 / zones: / start-frame=901 / end-frame=959 / bitrate-factor=1.500000 / zones: / start-frame=2447 / end-frame=2547 / bitrate-factor=1.500000 / zones: / start-frame=9576 / end-frame=9600 / bitrate-factor=1.500000 / zones: / start-frame=14719 / end-frame=14795 / bitrate-factor=1.500000 / zones: / start-frame=27010 / end-frame=27062 / bitrate-factor=1.500000 / zones: / start-frame=27208 / end-frame=27826 / bitrate-factor=1.500000 / zones: / start-frame=75013 / end-frame=75213 / bitrate-factor=1.500000 / zones: / start-frame=77754 / end-frame=77928 / bitrate-factor=1.500000 / zones: / start-frame=89986 / end-frame=90052 / bitrate-factor=1.500000 / zones: / start-frame=91440 / end-frame=91522 / bitrate-factor=1.500000 / zones: / start-frame=91748 / end-frame=91797 / bitrate-factor=1.500000 / zones: / start-frame=91801 / end-frame=91857 / bitrate-factor=1.500000 / zones: / start-frame=92941 / end-frame=92998 / bitrate-factor=1.500000 / zones: / start-frame=111447 / end-frame=111896 / bitrate-factor=1.500000 / zones: / start-frame=127305 / end-frame=127481 / bitrate-factor=1.500000 / zones: / start-frame=134237 / end-frame=134401 / bitrate-factor=1.500000 / zones: / start-frame=147698 / end-frame=147843 / bitrate-factor=1.500000 / no-strict-cbr / qg-size=8 / no-rc-grain / qpmax=69 / qpmin=0 / no-const-vbv / sar=0 / overscan=0 / videoformat=5 / range=0 / colorprim=1 / transfer=1 / colormatrix=1 / chromaloc=0 / display-window=0 / cll=0,0 / min-luma=0 / max-luma=1023 / log2-max-poc-lsb=8 / vui-timing-info / vui-hrd-info / slices=1 / no-opt-qp-pps / no-opt-ref-list-length-pps / no-multi-pass-opt-rps / scenecut-bias=0.05 / hist-threshold=0.03 / no-opt-cu-delta-qp / no-aq-motion / no-hdr10 / no-hdr10-opt / no-dhdr10-opt / no-idr-recovery-sei / analysis-reuse-level=0 / analysis-save-reuse-level=0 / analysis-load-reuse-level=0 / scale-factor=0 / refine-intra=0 / refine-inter=0 / refine-mv=1 / refine-ctu-distortion=0 / no-limit-sao / ctu-info=0 / no-lowpass-dct / refine-analysis-type=0 / copy-pic=1 / max-ausize-factor=1.0 / no-dynamic-refine / no-single-sei / no-hevc-aq / no-svt / no-field / qp-adaptation-range=1.00 / scenecut-aware-qp=0conformance-window-offsets / right=0 / bottom=0 / NTM4NzU= / decoder-max-rate=0 / no-vbv-live-multi-pass
  34. Default                                  : Yes
  35. Forced                                   : No
  36. Color range                              : Limited
  37. Color primaries                          : BT.709
  38. Transfer characteristics                 : BT.709
  39. Matrix coefficients                      : BT.709
  40. Audio #1
  41. ID                                       : 2
  42. Format                                   : E-AC-3
  43. Format/Info                              : Enhanced AC-3
  44. Commercial name                          : Dolby Digital Plus
  45. Codec ID                                 : A_EAC3
  46. Duration                                 : 2 h 1 min
  47. Bit rate mode                            : Constant
  48. Bit rate                                 : 1 023 kb/s
  49. Channel(s)                               : 6 channels
  50. Channel layout                           : L R C LFE Ls Rs
  51. Sampling rate                            : 48.0 kHz
  52. Frame rate                               : 93.750 FPS (512 SPF)
  53. Compression mode                         : Lossy
  54. Stream size                              : 886 MiB (8%)
  55. Language                                 : Korean
  56. Service kind                             : Complete Main
  57. Default                                  : Yes
  58. Forced                                   : No
  59. Audio #2
  60. ID                                       : 3
  61. Format                                   : AAC LC
  62. Format/Info                              : Advanced Audio Codec Low Complexity
  63. Codec ID                                 : A_AAC-2
  64. Duration                                 : 2 h 1 min
  65. Bit rate                                 : 90.5 kb/s
  66. Channel(s)                               : 2 channels
  67. Channel layout                           : L R
  68. Sampling rate                            : 48.0 kHz
  69. Frame rate                               : 46.875 FPS (1024 SPF)
  70. Compression mode                         : Lossy
  71. Stream size                              : 78.4 MiB (1%)
  72. Title                                    : Commentary by Director Kyung-taek Kwak
  73. Language                                 : Korean
  74. Default                                  : No
  75. Forced                                   : No
  76. Text #1
  77. ID                                       : 4
  78. Format                                   : UTF-8
  79. Codec ID                                 : S_TEXT/UTF8
  80. Codec ID/Info                            : UTF-8 Plain Text
  81. Duration                                 : 1 h 53 min
  82. Bit rate                                 : 33 b/s
  83. Count of elements                        : 1183
  84. Stream size                              : 27.7 KiB (0%)
  85. Language                                 : Chinese
  86. Default                                  : Yes
  87. Forced                                   : No
  88. Text #2
  89. ID                                       : 5
  90. Format                                   : UTF-8
  91. Codec ID                                 : S_TEXT/UTF8
  92. Codec ID/Info                            : UTF-8 Plain Text
  93. Duration                                 : 1 h 53 min
  94. Bit rate                                 : 45 b/s
  95. Count of elements                        : 1079
  96. Stream size                              : 37.5 KiB (0%)
  97. Language                                 : Korean
  98. Default                                  : No
  99. Forced                                   : No
  100. Text #3
  101. ID                                       : 6
  102. Format                                   : UTF-8
  103. Codec ID                                 : S_TEXT/UTF8
  104. Codec ID/Info                            : UTF-8 Plain Text
  105. Duration                                 : 1 h 53 min
  106. Bit rate                                 : 30 b/s
  107. Count of elements                        : 1091
  108. Stream size                              : 25.3 KiB (0%)
  109. Language                                 : English
  110. Default                                  : No
  111. Forced                                   : No
  112. Menu
  113. 00:00:00.000                             : en:Chapter 01
  114. 00:10:18.492                             : en:Chapter 02
  115. 00:20:20.594                             : en:Chapter 03
  116. 00:31:53.745                             : en:Chapter 04
  117. 00:39:57.978                             : en:Chapter 05
  118. 00:50:47.002                             : en:Chapter 06
  119. 01:01:03.660                             : en:Chapter 07
  120. 01:11:37.960                             : en:Chapter 08
  121. 01:21:54.743                             : en:Chapter 09
  122. 01:29:27.195                             : en:Chapter 10
  123. 01:39:31.382                             : en:Chapter 11
  124. 01:47:30.444                             : en:Chapter 12
复制代码

















保举请利用qBittorrent,utorrent,transmission等标准BT软件下载!以获得最快速度。奉求保种!





回复

使用道具 举报

懒得打字嘛,点击右侧快捷回复 【右侧内容,后台自定义】
您需要登录后才可以回帖 登录 | 立即加入

本版积分规则

Archiver|小黑屋| 蓝光电影网 |网站地图

Copyright © 2021 Comsenz Inc. Powered by 蓝光电影网

蓝光电影网

本站内容由用户自主分享和转载自互联网,转载目的在于传递更多信息,并不代表本网赞同其观点和对其真实性负责。

如有侵权、违反国家法律政策行为,请联系我们,我们会第一时间及时清除和处理!

举报反馈邮箱:[email protected]

快速回复 返回顶部 返回列表