找回密码

蓝光电影网

查看: 68|回复: 2

[剧情] 极限空间[中英字幕].Fermat's.Room.2007.1080p.BluRay.x265.10bit.DDP.5.1-MiniHD 8.25GB

[复制链接]
蓝光币
7
发表于 2022-7-29 01:57:34 | 显示全部楼层 |阅读模式


◎标  题 极限空间
◎译  名 费马的房间 / 费马空间 / 数学谋杀案 / Fermat's Room
◎片  名 La habitación de Fermat
◎年  代 2007
◎产  地 西班牙
◎类  别 悬疑 / 惊悚
◎语  言 西班牙语
◎上映日期 2010-03-04(中国大陆) / 2007-10-07(锡切斯电影节) / 2007-11-16(西班牙)
◎IMDb评分 6.7/10 (20953人评价)
◎IMDb链接 https://www.imdb.com/title/tt1016301/
◎豆瓣评分 6.7/10 (21575人评价)
◎豆瓣链接 https://movie.douban.com/subject/3094580/
◎片  长 89分钟
◎导  演 路易斯·佩德拉希塔 Luis Piedrahita
       罗德里戈·索佩尼亚 Rodrigo Sopeña
◎编  剧 路易斯·佩德拉希塔 Luis Piedrahita
       罗德里戈·索佩尼亚 Rodrigo Sopeña
◎演  员 阿雷胡·苏拉斯 Alejo Sauras
       伊莲娜·巴雷斯特罗斯 Elena Ballesteros
       路易斯·奥马 Lluís Homar
       桑提·米兰 Santi Millán
       费德里科·路皮 Federico Luppi
       Josep Minguell Josep Minguell
       Helena Carrión Helena Carrión
       Maria Piedrahita Maria Piedrahita
       Víctor Benjumea Víctor Benjumea
       Núria Badia Núria Badia
       Mariola Ruiz Mariola Ruiz
       玛尔·德尔奥约 Mar del Hoyo
       Eloy Arenas Eloy Arenas
       艾妮安娜·卡布罗尔 Ariadna Cabrol
        Juanma Falcón
       张杰 Jie Zhang
◎标  签 悬疑 / 西班牙 / 推理 / 数学 / 惊悚 / 西班牙电影 / 2007 / 电影
◎简  介
    伽罗华(阿雷胡·苏拉斯 Alejo Sauras 饰)、奥莉薇娅(伊莲娜·巴雷斯特罗斯 Elena Ballesteros 饰)、帕斯卡(桑提·米兰 Santi Millán 饰)和希尔伯特(路易斯·霍马 Lluís Homar 饰)别离是各自学术行业里的佼佼者,某一日,一封奥秘的约请函和一道诡异的谜题将四人聚集到了同一个房间当中。                                                                      但是,被困住的四人很快就发现,他们堕入了某人经心设想的“游戏”当中,假如不能正确回答一道又一道的谜题,他们终将被不竭逼近的墙壁压成肉泥。在严重的解题进程中,四人还必须相互试探相互的实在身份以及找到其中的关联,严重的空气当中,高智商的四人组终极可以逃诞生天吗?以前期待着他们的又会是什么呢?
  1. ##### MediaInfo ######
  2. General
  3. Unique ID                                : 259751363482059766971484134842322042404 (0xC36A4AFBA95E5776B746F7AEAA0ABE24)
  4. Complete name                            : Fermat's.Room.2007.1080p.BluRay.x265.10bit.DDP.5.1-MiniHD.mkv
  5. Format                                   : Matroska
  6. Format version                           : Version 4
  7. File size                                : 8.24 GiB
  8. Duration                                 : 1 h 32 min
  9. Overall bit rate                         : 12.8 Mb/s
  10. Movie name                               : Fermat's Room 2007 1080p Blu-ray x265 DDP 5.1 MNHD-FRDS
  11. Encoded date                             : UTC 2021-04-23 13:35:44
  12. Writing application                      : mkvmerge v56.1.0 ('My Friend') 64-bit
  13. Writing library                          : libebml v1.4.2 + libmatroska v1.6.4
  14. Cover                                    : Yes
  15. Attachments                              : cover.jpg
  16. Video
  17. ID                                       : 1
  18. Format                                   : HEVC
  19. Format/Info                              : High Efficiency Video Coding
  20. Format profile                           : Main [email protected]@High
  21. Codec ID                                 : V_MPEGH/ISO/HEVC
  22. Duration                                 : 1 h 32 min
  23. Bit rate                                 : 11.8 Mb/s
  24. Width                                    : 1 920 pixels
  25. Height                                   : 1 038 pixels
  26. Display aspect ratio                     : 1.85:1
  27. Frame rate mode                          : Constant
  28. Frame rate                               : 24.000 FPS
  29. Color space                              : YUV
  30. Chroma subsampling                       : 4:2:0
  31. Bit depth                                : 10 bits
  32. Bits/(Pixel*Frame)                       : 0.248
  33. Stream size                              : 7.62 GiB (92%)
  34. Writing library                          : x265 3.5+8-57e817329:[Windows][MSVC 1928][64 bit] 10bit
  35. Encoding settings                        : cpuid=538751111039 / frame-threads=3 / numa-pools=8 / wpp / pmode / no-pme / no-psnr / no-ssim / log-level=2 / input-csp=1 / input-res=1920x1038 / interlace=0 / total-frames=132624 / level-idc=0 / high-tier=1 / uhd-bd=0 / ref=4 / no-allow-non-conformance / no-repeat-headers / annexb / no-aud / no-hrd / info / hash=0 / no-temporal-layers / no-open-gop / min-keyint=1 / keyint=250 / gop-lookahead=0 / bframes=6 / b-adapt=2 / b-pyramid / bframe-bias=0 / rc-lookahead=80 / lookahead-slices=0 / NTM4NzU=uuDQuD2mJt9fsCf / scenecut=40 / hist-scenecut=0 / radl=0 / no-splice / no-intra-refresh / ctu=32 / min-cu-size=8 / no-rect / no-amp / max-tu-size=32 / tu-inter-depth=4 / tu-intra-depth=4 / limit-tu=0 / rdoq-level=2 / dynamic-rd=0.00 / no-ssim-rd / signhide / no-tskip / nr-intra=0 / nr-inter=0 / no-constrained-intra / strong-intra-smoothing / max-merge=5 / limit-refs=0 / no-limit-modes / me=3 / subme=7 / merange=57 / temporal-mvp / no-frame-dup / no-hme / weightp / weightb / no-analyze-src-pics / deblock=-3:-3 / no-sao / no-sao-non-deblock / rd=4 / selective-sao=0 / no-early-skip / no-rskip / no-fast-intra / no-tskip-fast / no-cu-lossless / b-intra / no-splitrd-skip / rdpenalty=0 / psy-rd=1.50 / psy-rdoq=1.00 / no-rd-refine / no-lossless / cbqpoffs=-2 / crqpoffs=-2 / rc=crf / crf=24.0 / qcomp=0.65 / qpstep=4 / stats-write=0 / stats-read=0 / vbv-maxrate=160000 / vbv-bufsize=160000 / vbv-init=0.9 / min-vbv-fullness=50.0 / max-vbv-fullness=80.0 / crf-max=0.0 / crf-min=0.0 / ipratio=1.30 / pbratio=1.20 / aq-mode=1 / aq-strength=1.00 / no-cutree / zone-count=0 / no-strict-cbr / qg-size=8 / no-rc-grain / qpmax=69 / qpmin=0 / no-const-vbv / sar=0 / overscan=0 / videoformat=5 / range=0 / colorprim=1 / transfer=1 / colormatrix=1 / chromaloc=0 / display-window=0 / cll=0,0 / min-luma=0 / max-luma=1023 / log2-max-poc-lsb=8 / vui-timing-info / vui-hrd-info / slices=1 / no-opt-qp-pps / no-opt-ref-list-length-pps / no-multi-pass-opt-rps / scenecut-bias=0.05 / hist-threshold=0.03 / no-opt-cu-delta-qp / no-aq-motion / no-hdr10 / no-hdr10-opt / no-dhdr10-opt / no-idr-recovery-sei / analysis-reuse-level=0 / analysis-save-reuse-level=0 / analysis-load-reuse-level=0 / scale-factor=0 / refine-intra=0 / refine-inter=0 / refine-mv=1 / refine-ctu-distortion=0 / no-limit-sao / ctu-info=0 / no-lowpass-dct / refine-analysis-type=0 / copy-pic=1 / max-ausize-factor=1.0 / no-dynamic-refine / no-single-sei / no-hevc-aq / no-svt / no-field / qp-adaptation-range=1.00 / scenecut-aware-qp=0conformance-window-offsets / right=0 / bottom=0 / NTM4NzU= / decoder-max-rate=0 / no-vbv-live-multi-pass
  36. Default                                  : Yes
  37. Forced                                   : No
  38. Color range                              : Limited
  39. Color primaries                          : BT.709
  40. Transfer characteristics                 : BT.709
  41. Matrix coefficients                      : BT.709
  42. Audio #1
  43. ID                                       : 2
  44. Format                                   : AC-3
  45. Format/Info                              : Audio Coding 3
  46. Commercial name                          : Dolby Digital
  47. Codec ID                                 : A_AC3
  48. Duration                                 : 1 h 32 min
  49. Bit rate mode                            : Constant
  50. Bit rate                                 : 448 kb/s
  51. Channel(s)                               : 6 channels
  52. Channel layout                           : L R C LFE Ls Rs
  53. Sampling rate                            : 48.0 kHz
  54. Frame rate                               : 31.250 FPS (1536 SPF)
  55. Compression mode                         : Lossy
  56. Stream size                              : 295 MiB (3%)
  57. Language                                 : Spanish
  58. Service kind                             : Complete Main
  59. Default                                  : Yes
  60. Forced                                   : No
  61. Audio #2
  62. ID                                       : 3
  63. ID in the original source medium         : 4354 (0x1102)
  64. Format                                   : AC-3
  65. Format/Info                              : Audio Coding 3
  66. Commercial name                          : Dolby Digital
  67. Codec ID                                 : A_AC3
  68. Duration                                 : 1 h 32 min
  69. Bit rate mode                            : Constant
  70. Bit rate                                 : 448 kb/s
  71. Channel(s)                               : 2 channels
  72. Channel layout                           : L R
  73. Sampling rate                            : 48.0 kHz
  74. Frame rate                               : 31.250 FPS (1536 SPF)
  75. Compression mode                         : Lossy
  76. Stream size                              : 295 MiB (3%)
  77. Title                                    : Commentary By De Los Directors
  78. Language                                 : Spanish
  79. Service kind                             : Complete Main
  80. Default                                  : No
  81. Forced                                   : No
  82. Original source medium                   : Blu-ray
  83. Text #1
  84. ID                                       : 4
  85. ID in the original source medium         : 4611 (0x1203)
  86. Format                                   : PGS
  87. Muxing mode                              : zlib
  88. Codec ID                                 : S_HDMV/PGS
  89. Codec ID/Info                            : Picture based subtitle format used on BDs/HD-DVDs
  90. Duration                                 : 1 h 26 min
  91. Bit rate                                 : 29.6 kb/s
  92. Count of elements                        : 2230
  93. Stream size                              : 18.3 MiB (0%)
  94. Language                                 : Chinese
  95. Default                                  : Yes
  96. Forced                                   : No
  97. Original source medium                   : Blu-ray
  98. Text #2
  99. ID                                       : 5
  100. ID in the original source medium         : 4612 (0x1204)
  101. Format                                   : PGS
  102. Muxing mode                              : zlib
  103. Codec ID                                 : S_HDMV/PGS
  104. Codec ID/Info                            : Picture based subtitle format used on BDs/HD-DVDs
  105. Duration                                 : 1 h 26 min
  106. Bit rate                                 : 30.9 kb/s
  107. Count of elements                        : 2230
  108. Stream size                              : 19.1 MiB (0%)
  109. Language                                 : Chinese
  110. Default                                  : No
  111. Forced                                   : No
  112. Original source medium                   : Blu-ray
  113. Text #3
  114. ID                                       : 6
  115. ID in the original source medium         : 4608 (0x1200)
  116. Format                                   : PGS
  117. Muxing mode                              : zlib
  118. Codec ID                                 : S_HDMV/PGS
  119. Codec ID/Info                            : Picture based subtitle format used on BDs/HD-DVDs
  120. Duration                                 : 1 h 31 min
  121. Bit rate                                 : 43.2 kb/s
  122. Count of elements                        : 2230
  123. Stream size                              : 28.2 MiB (0%)
  124. Language                                 : English
  125. Default                                  : No
  126. Forced                                   : No
  127. Original source medium                   : Blu-ray
  128. Text #4
  129. ID                                       : 7
  130. ID in the original source medium         : 4609 (0x1201)
  131. Format                                   : PGS
  132. Muxing mode                              : zlib
  133. Codec ID                                 : S_HDMV/PGS
  134. Codec ID/Info                            : Picture based subtitle format used on BDs/HD-DVDs
  135. Duration                                 : 1 h 25 min
  136. Bit rate                                 : 47.6 kb/s
  137. Count of elements                        : 1766
  138. Stream size                              : 29.1 MiB (0%)
  139. Language                                 : Portuguese
  140. Default                                  : No
  141. Forced                                   : No
  142. Original source medium                   : Blu-ray
  143. Text #5
  144. ID                                       : 8
  145. ID in the original source medium         : 4610 (0x1202)
  146. Format                                   : PGS
  147. Muxing mode                              : zlib
  148. Codec ID                                 : S_HDMV/PGS
  149. Codec ID/Info                            : Picture based subtitle format used on BDs/HD-DVDs
  150. Duration                                 : 1 h 25 min
  151. Bit rate                                 : 28.2 kb/s
  152. Count of elements                        : 1744
  153. Stream size                              : 17.2 MiB (0%)
  154. Language                                 : Arabic
  155. Default                                  : No
  156. Forced                                   : No
  157. Original source medium                   : Blu-ray
  158. Menu
  159. 00:00:00.000                             : Chapter 01
  160. 00:06:46.208                             : Chapter 02
  161. 00:14:58.000                             : Chapter 03
  162. 00:24:10.000                             : Chapter 04
  163. 00:30:10.333                             : Chapter 05
  164. 00:38:55.000                             : Chapter 06
  165. 00:45:39.000                             : Chapter 07
  166. 00:51:35.000                             : Chapter 08
  167. 00:58:19.583                             : Chapter 09
  168. 01:07:42.000                             : Chapter 10
  169. 01:14:22.833                             : Chapter 11
  170. 01:21:20.833                             : Chapter 12
  171. 01:26:50.000                             : Chapter 13
复制代码



保举请利用qBittorrent,utorrent,transmission等标准BT软件下载!以获得最快速度。奉求保种!





[url=https://www.4k1080.com/data/attachment/forum/极限空间[中英字幕].Fermat's.Room.2007.1080p.BluRay.x265.10bit.DDP.5.1-MiniHD.torrent]极限空间[中英字幕].Fermat's.Room.2007.1080p.BluRay.x265.10bit.DDP.5.1-MiniHD 8.25GB[/url]
回复

使用道具 举报

蓝光币
18
发表于 2022-7-29 10:02:38 | 显示全部楼层

这个帖子不回对不起自己!我想我是一天也不能离开蓝光电影网。
回复 支持 反对

使用道具 举报

蓝光币
36
发表于 2022-7-29 10:58:36 | 显示全部楼层
楼主发贴辛苦了,谢谢楼主分享!我觉得蓝光电影网是注册对了!
回复 支持 反对

使用道具 举报

懒得打字嘛,点击右侧快捷回复 【右侧内容,后台自定义】
您需要登录后才可以回帖 登录 | 立即加入

本版积分规则

Archiver|小黑屋| 蓝光电影网 |网站地图

Copyright © 2021 Comsenz Inc. Powered by 蓝光电影网

蓝光电影网

本站内容由用户自主分享和转载自互联网,转载目的在于传递更多信息,并不代表本网赞同其观点和对其真实性负责。

如有侵权、违反国家法律政策行为,请联系我们,我们会第一时间及时清除和处理!

举报反馈邮箱:[email protected]

快速回复 返回顶部 返回列表