找回密码

蓝光电影网

查看: 168|回复: 0

[剧情] 五遁忍术[国英多音轨/简繁英字幕].Five.Element.Ninjas.1982.Bluray.1080p.x265.10bit.FLAC-MiniHD 5.71GB

[复制链接]
蓝光币
8
发表于 2022-7-29 01:57:32 | 显示全部楼层 |阅读模式


◎标  题 五遁忍术
◎译  名 Five Element Ninja
◎片  名 五遁忍術
◎年  代 1982
◎产  地 中国香港
◎类  别 行动 / 武侠 / 古装
◎语  言 粤语
◎上映日期 1982-04-21
◎IMDb评分 7.3/10 (2822人评价)
◎IMDb链接 https://www.imdb.com/title/tt0084921/
◎豆瓣评分 6.9/10 (1651人评价)
◎豆瓣链接 https://movie.douban.com/subject/1301046/
◎片  长 USA: 107 分钟
◎导  演 张彻 Cheh Chang
◎编  剧 张彻 Cheh Chang
◎演  员 罗莽 Meng Lo
       陈惠敏 Wai-Man Chan
       林志泰 Chi Tai Lam
       林富伟 Fu-wai Lam
       李耀景 Yiu Ging Lee
       周小来 Siu Loi Chow
       洪新南 Hsin Nan Hung
       王华 Hua Wang
       朱客 Ke Chu
       詹森 Shen Chan
       程天赐 Chien-Chang Chen
       陈佩茜 Chen Pei-Hsi
       关锋 Kwan Fung
       赵国 Kuo Chao
       薛春炜 Ailen Sit
       林威 Wai Lam
       余承平 Tai-ping Yu
       黎友兴 You-Hsing Lai
       萧玉 Hsiao Yu
       王力 Wong Lik
       方逸华 Mona Fong
       摆设 Lieh Chen
       邵逸夫 Run Run Shaw
       苏振厚 Chen-Hou Su
       黄文云 Wen Yun Huang
       陈芬 Chan Fen
       李炎海 Yen Hai Li
       姜兴盛 Hsing-lung Chiang
       曹庄生 Johnson Tsao
       刘季友 Chi-Yu Liu
       卢远鸣 Lucas Lowe
       徐炳光
       朱客 Ke Chu
       程天赐 Chien-Chang Chen
       彭雁联 Yen-Lien Peng
◎标  签 邵氏 / 张彻 / 香港 / 武侠 / 行动 / 香港电影 / 1982 / 忍术
◎简  介
  本片由张彻导演爱将罗莽、程天赐及龙天翔领衔主演,倪匡编剧,拍于1982年。故事报告忍者之王剑渊(陈惠敏 饰)为替败于武林总盟牛耳袁增(关锋饰)手下的东瀛军人复仇,率领多量忍者前来中土,摆下「五遁阵」,向袁增应战。袁增派遣门下八位高手前往破阵,却因对忍术一无所知,全数被杀。剑渊取胜后意犹未足,派出女忍者纯子(陈佩茜 饰)混入总盟作内应,以图称霸武林……
  1. ##### MediaInfo ######
  2. General
  3. Unique ID                                : 215986254660838800681299825157208206034 (0xA27D7085DF6ADE2826EAF7E6F922EAD2)
  4. Complete name                            : Five.Element.Ninjas.1982.Bluray.1080p.x265.10bit.FLAC-MiniHD.mkv
  5. Format                                   : Matroska
  6. Format version                           : Version 4
  7. File size                                : 5.70 GiB
  8. Duration                                 : 1 h 48 min
  9. Overall bit rate mode                    : Variable
  10. Overall bit rate                         : 7 549 kb/s
  11. Encoded date                             : UTC 2021-02-04 13:38:24
  12. Writing application                      : mkvmerge v51.0.0 ('I Wish') 64-bit
  13. Writing library                          : libebml v1.4.0 + libmatroska v1.6.2
  14. Video
  15. ID                                       : 1
  16. Format                                   : HEVC
  17. Format/Info                              : High Efficiency Video Coding
  18. Format profile                           : Main [email protected]@High
  19. Codec ID                                 : V_MPEGH/ISO/HEVC
  20. Duration                                 : 1 h 48 min
  21. Bit rate                                 : 6 730 kb/s
  22. Width                                    : 1 920 pixels
  23. Height                                   : 812 pixels
  24. Display aspect ratio                     : 2.35:1
  25. Frame rate mode                          : Constant
  26. Frame rate                               : 23.976 (24000/1001/53875) FPS
  27. Color space                              : YUV
  28. Chroma subsampling                       : 4:2:0
  29. Bit depth                                : 10 bits
  30. Bits/(Pixel*Frame)                       : 0.180
  31. Stream size                              : 5.09 GiB (89%)
  32. Writing library                          : x265 3.4+33-606265ac7:[Windows][MSVC 1928][64 bit] 10bit
  33. Encoding settings                        : cpuid=538751111039 / frame-threads=3 / numa-pools=8 / wpp / pmode / no-pme / no-psnr / no-ssim / log-level=2 / input-csp=1 / input-res=1920x812 / interlace=0 / total-frames=155623 / level-idc=0 / high-tier=1 / uhd-bd=0 / ref=4 / no-allow-non-conformance / no-repeat-headers / annexb / no-aud / no-hrd / info / hash=0 / no-temporal-layers / no-open-gop / min-keyint=1 / keyint=250 / gop-lookahead=0 / bframes=6 / b-adapt=2 / b-pyramid / bframe-bias=0 / rc-lookahead=80 / lookahead-slices=0 / NTM4NzU=uuDQuD2mJt9fsCf / scenecut=40 / hist-scenecut=0 / radl=0 / no-splice / no-intra-refresh / ctu=32 / min-cu-size=8 / no-rect / no-amp / max-tu-size=32 / tu-inter-depth=4 / tu-intra-depth=4 / limit-tu=0 / rdoq-level=2 / dynamic-rd=0.00 / no-ssim-rd / signhide / tskip / nr-intra=0 / nr-inter=0 / no-constrained-intra / strong-intra-smoothing / max-merge=5 / limit-refs=0 / no-limit-modes / me=3 / subme=7 / merange=44 / temporal-mvp / no-frame-dup / no-hme / weightp / weightb / no-analyze-src-pics / deblock=-3:-3 / no-sao / no-sao-non-deblock / rd=4 / selective-sao=0 / no-early-skip / no-rskip / no-fast-intra / no-tskip-fast / no-cu-lossless / b-intra / no-splitrd-skip / rdpenalty=0 / psy-rd=1.50 / psy-rdoq=1.00 / no-rd-refine / no-lossless / cbqpoffs=-2 / crqpoffs=-2 / rc=crf / crf=21.0 / qcomp=0.65 / qpstep=4 / stats-write=0 / stats-read=0 / vbv-maxrate=160000 / vbv-bufsize=160000 / vbv-init=0.9 / min-vbv-fullness=50.0 / max-vbv-fullness=80.0 / crf-max=0.0 / crf-min=0.0 / ipratio=1.30 / pbratio=1.20 / aq-mode=1 / aq-strength=1.00 / no-cutree / zone-count=0 / no-strict-cbr / qg-size=8 / no-rc-grain / qpmax=69 / qpmin=0 / no-const-vbv / sar=0 / overscan=0 / videoformat=5 / range=0 / colorprim=1 / transfer=1 / colormatrix=1 / chromaloc=0 / display-window=0 / cll=0,0 / min-luma=0 / max-luma=1023 / log2-max-poc-lsb=8 / vui-timing-info / vui-hrd-info / slices=1 / no-opt-qp-pps / no-opt-ref-list-length-pps / no-multi-pass-opt-rps / scenecut-bias=0.05 / hist-threshold=0.03 / no-opt-cu-delta-qp / no-aq-motion / no-hdr10 / no-hdr10-opt / no-dhdr10-opt / no-idr-recovery-sei / analysis-reuse-level=0 / analysis-save-reuse-level=0 / analysis-load-reuse-level=0 / scale-factor=0 / refine-intra=0 / refine-inter=0 / refine-mv=1 / refine-ctu-distortion=0 / no-limit-sao / ctu-info=0 / no-lowpass-dct / refine-analysis-type=0 / copy-pic=1 / max-ausize-factor=1.0 / no-dynamic-refine / no-single-sei / no-hevc-aq / no-svt / no-field / qp-adaptation-range=1.00 / scenecut-aware-qp=0conformance-window-offsets / right=0 / bottom=0 / NTM4NzU= / decoder-max-rate=0 / no-vbv-live-multi-pass
  34. Default                                  : Yes
  35. Forced                                   : No
  36. Color range                              : Limited
  37. Color primaries                          : BT.709
  38. Transfer characteristics                 : BT.709
  39. Matrix coefficients                      : BT.709
  40. Audio #1
  41. ID                                       : 2
  42. Format                                   : FLAC
  43. Format/Info                              : Free Lossless Audio Codec
  44. Codec ID                                 : A_FLAC
  45. Duration                                 : 1 h 48 min
  46. Bit rate mode                            : Variable
  47. Bit rate                                 : 267 kb/s
  48. Channel(s)                               : 2 channels
  49. Channel layout                           : L R
  50. Sampling rate                            : 48.0 kHz
  51. Frame rate                               : 11.719 FPS (4096 SPF)
  52. Bit depth                                : 16 bits
  53. Compression mode                         : Lossless
  54. Stream size                              : 206 MiB (4%)
  55. Writing library                          : libFLAC 1.3.3 (UTC 2019-08-04)
  56. Language                                 : Chinese
  57. Default                                  : Yes
  58. Forced                                   : No
  59. Audio #2
  60. ID                                       : 3
  61. Format                                   : FLAC
  62. Format/Info                              : Free Lossless Audio Codec
  63. Codec ID                                 : A_FLAC
  64. Duration                                 : 1 h 48 min
  65. Bit rate mode                            : Variable
  66. Bit rate                                 : 267 kb/s
  67. Channel(s)                               : 2 channels
  68. Channel layout                           : L R
  69. Sampling rate                            : 48.0 kHz
  70. Frame rate                               : 11.719 FPS (4096 SPF)
  71. Bit depth                                : 16 bits
  72. Compression mode                         : Lossless
  73. Stream size                              : 207 MiB (4%)
  74. Writing library                          : libFLAC 1.3.3 (UTC 2019-08-04)
  75. Language                                 : English
  76. Default                                  : No
  77. Forced                                   : No
  78. Audio #3
  79. ID                                       : 4
  80. ID in the original source medium         : 4354 (0x1102)
  81. Format                                   : AC-3
  82. Format/Info                              : Audio Coding 3
  83. Commercial name                          : Dolby Digital
  84. Codec ID                                 : A_AC3
  85. Duration                                 : 1 h 48 min
  86. Bit rate mode                            : Constant
  87. Bit rate                                 : 224 kb/s
  88. Channel(s)                               : 2 channels
  89. Channel layout                           : L R
  90. Sampling rate                            : 48.0 kHz
  91. Frame rate                               : 31.250 FPS (1536 SPF)
  92. Compression mode                         : Lossy
  93. Stream size                              : 173 MiB (3%)
  94. Title                                    : Commentary by Acclaimed Kung-Fu Expert, Bey Logan
  95. Language                                 : English
  96. Service kind                             : Complete Main
  97. Default                                  : No
  98. Forced                                   : No
  99. Original source medium                   : Blu-ray
  100. Text #1
  101. ID                                       : 5
  102. Format                                   : UTF-8
  103. Codec ID                                 : S_TEXT/UTF8
  104. Codec ID/Info                            : UTF-8 Plain Text
  105. Duration                                 : 1 h 46 min
  106. Bit rate                                 : 17 b/s
  107. Count of elements                        : 547
  108. Stream size                              : 13.4 KiB (0%)
  109. Language                                 : Chinese
  110. Default                                  : No
  111. Forced                                   : No
  112. Text #2
  113. ID                                       : 6
  114. Format                                   : PGS
  115. Muxing mode                              : zlib
  116. Codec ID                                 : S_HDMV/PGS
  117. Codec ID/Info                            : Picture based subtitle format used on BDs/HD-DVDs
  118. Duration                                 : 1 h 45 min
  119. Bit rate                                 : 15.5 kb/s
  120. Count of elements                        : 1086
  121. Stream size                              : 11.7 MiB (0%)
  122. Title                                    : CHS
  123. Language                                 : Chinese
  124. Default                                  : No
  125. Forced                                   : No
  126. Text #3
  127. ID                                       : 7
  128. Format                                   : PGS
  129. Muxing mode                              : zlib
  130. Codec ID                                 : S_HDMV/PGS
  131. Codec ID/Info                            : Picture based subtitle format used on BDs/HD-DVDs
  132. Duration                                 : 1 h 46 min
  133. Bit rate                                 : 15.8 kb/s
  134. Count of elements                        : 1088
  135. Stream size                              : 12.0 MiB (0%)
  136. Title                                    : CHT
  137. Language                                 : Chinese
  138. Default                                  : No
  139. Forced                                   : No
  140. Text #4
  141. ID                                       : 8
  142. Format                                   : PGS
  143. Muxing mode                              : zlib
  144. Codec ID                                 : S_HDMV/PGS
  145. Codec ID/Info                            : Picture based subtitle format used on BDs/HD-DVDs
  146. Duration                                 : 1 h 46 min
  147. Bit rate                                 : 34.2 kb/s
  148. Count of elements                        : 1174
  149. Stream size                              : 26.0 MiB (0%)
  150. Title                                    : chs&eng
  151. Language                                 : Chinese
  152. Default                                  : Yes
  153. Forced                                   : No
  154. Text #5
  155. ID                                       : 9
  156. Format                                   : PGS
  157. Muxing mode                              : zlib
  158. Codec ID                                 : S_HDMV/PGS
  159. Codec ID/Info                            : Picture based subtitle format used on BDs/HD-DVDs
  160. Duration                                 : 1 h 46 min
  161. Bit rate                                 : 34.6 kb/s
  162. Count of elements                        : 1174
  163. Stream size                              : 26.3 MiB (0%)
  164. Title                                    : cht&eng
  165. Language                                 : Chinese
  166. Default                                  : No
  167. Forced                                   : No
  168. Text #6
  169. ID                                       : 10
  170. ID in the original source medium         : 4608 (0x1200)
  171. Format                                   : PGS
  172. Muxing mode                              : zlib
  173. Codec ID                                 : S_HDMV/PGS
  174. Codec ID/Info                            : Picture based subtitle format used on BDs/HD-DVDs
  175. Duration                                 : 1 h 46 min
  176. Bit rate                                 : 18.9 kb/s
  177. Count of elements                        : 1174
  178. Stream size                              : 14.4 MiB (0%)
  179. Language                                 : English
  180. Default                                  : No
  181. Forced                                   : No
  182. Original source medium                   : Blu-ray
  183. Menu
  184. 00:00:00.000                             : en:Chapter 01
  185. 00:13:34.146                             : en:Chapter 02
  186. 00:27:37.489                             : en:Chapter 03
  187. 00:44:16.111                             : en:Chapter 04
  188. 00:59:48.501                             : en:Chapter 05
  189. 01:13:45.546                             : en:Chapter 06
  190. 01:24:51.044                             : en:Chapter 07
  191. 01:38:06.171                             : en:Chapter 08
复制代码

















保举请利用qBittorrent,utorrent,transmission等标准BT软件下载!以获得最快速度。奉求保种!





回复

使用道具 举报

懒得打字嘛,点击右侧快捷回复 【右侧内容,后台自定义】
您需要登录后才可以回帖 登录 | 立即加入

本版积分规则

Archiver|小黑屋| 蓝光电影网 |网站地图

Copyright © 2021 Comsenz Inc. Powered by 蓝光电影网

蓝光电影网

本站内容由用户自主分享和转载自互联网,转载目的在于传递更多信息,并不代表本网赞同其观点和对其真实性负责。

如有侵权、违反国家法律政策行为,请联系我们,我们会第一时间及时清除和处理!

举报反馈邮箱:[email protected]

快速回复 返回顶部 返回列表