找回密码

蓝光电影网

查看: 199|回复: 0

[剧情] 花束般的恋爱[简繁英字幕].We.Made.a.Beautiful.Bouquet.2021.1080p.BluRay.DDP5.1.x265.10bit-MOMOHD 9.37GB

[复制链接]
蓝光币
8
发表于 2022-7-29 01:57:51 | 显示全部楼层 |阅读模式


◎标  题 花束般的恋爱
◎译  名 她和他的恋爱花期(港) / Hanataba mitaina koi o shita / We Made a Beautiful Bouquet / I Fell in Love Like A Flower Bouquet
◎片  名 花束みたいな恋をした
◎年  代 2021
◎产  地 日本
◎类  别 剧情 / 恋爱
◎语  言 日语
◎上映日期 2021-01-29(日本)
◎IMDb评分 7.2/10 (951人评价)
◎IMDb链接 https://www.imdb.com/title/tt11219254/
◎豆瓣评分 8.7/10 (127769人评价)
◎豆瓣链接 https://movie.douban.com/subject/34874432/
◎片  长 124分钟
◎导  演 土井裕泰 Nobuhiro Doi
◎编  剧 坂元裕二 Yûji Sakamoto
◎演  员 菅田将晖 Masaki Suda
       有村架纯 Kasumi Arimura
       细田佳央太 Kanata Hosoda
       清原果耶 Kaya Kiyohara
       小田切让 Jô Odagiri
       押井守 Mamoru Oshii
       户田惠子 Keiko Toda
       岩松了 Ryô Iwamatsu
       小林薰 Kaoru Kobayashi
       韩英惠 Hanae Kan
       中崎敏
       小久保寿人 KOKUBO TOSHIHITO
       泷内公美 Kumi Takiuchi
       森优作 Yusaku Mori
       古川琴音 Kotone Furukawa
       篠原悠伸
       八木亚里纱 Arisa Yagi
       佐藤宽太 Kanta Sato
       冈部崇 Takasi Okabe
       萩原实里 Minori Hagiwara
       福山翔大 Shodai Fukuyama
       萩原利久 Riku Hagiwara
       片山友希 Yuki Katayama
       宇野祥平 Shôhei Uno
       佐藤玲 Ryo Sato
       水泽绅吾 Shingo Mizusawa
       穗志萌香 Moeka Hoshi
       池田良 Ryô Ikeda
       大下浩人 Hiroto Oshita
◎标  签 日本 / 日本电影 / 菅田将晖 / 菅田将暉 / 日影 / 有村架纯 / 坂元裕二 / 有村架純
◎简  介
  影片是《四重奏》导演土井裕泰,编剧坂元裕二的大银幕首部合作作品。故事报告男女仆人公因在东京明大前站错过末班电车而偶然了解,以后展开时代、时候、地址、全数的偶然都像命运一样同步的5年恋爱,展现了他们在既非大人也非孩童的期间里,苍茫前行的样子。
  1. ##### MediaInfo ######
  2. General
  3. Unique ID                                : 148646405990476417687729866306370462004 (0x6FD441A63330535CF924666B88B8E134)
  4. Complete name                            : We.Made.a.Beautiful.Bouquet.2021.1080p.BluRay.DDP5.1.x265.10bit-MOMOHD.mkv
  5. Format                                   : Matroska
  6. Format version                           : Version 4
  7. File size                                : 9.37 GiB
  8. Duration                                 : 2 h 3 min
  9. Overall bit rate                         : 10.9 Mb/s
  10. Encoded date                             : UTC 2022-07-26 00:53:22
  11. Writing application                      : mkvmerge v68.0.0 ('The Curtain') 64-bit
  12. Writing library                          : libebml v1.4.2 + libmatroska v1.6.4
  13. Video
  14. ID                                       : 1
  15. Format                                   : HEVC
  16. Format/Info                              : High Efficiency Video Coding
  17. Format profile                           : Main [email protected]@Main
  18. Codec ID                                 : V_MPEGH/ISO/HEVC
  19. Duration                                 : 2 h 3 min
  20. Bit rate                                 : 9 830 kb/s
  21. Width                                    : 1 920 pixels
  22. Height                                   : 1 038 pixels
  23. Display aspect ratio                     : 1.85:1
  24. Frame rate mode                          : Constant
  25. Frame rate                               : 24.000 FPS
  26. Color space                              : YUV
  27. Chroma subsampling                       : 4:2:0 (Type 0)
  28. Bit depth                                : 10 bits
  29. Bits/(Pixel*Frame)                       : 0.206
  30. Stream size                              : 8.48 GiB (91%)
  31. Writing library                          : x265 3.5+37-0d865ebe2:[Windows][GCC 12.1.0][64 bit] 10bit
  32. Encoding settings                        : cpuid=538751111039 / frame-threads=4 / numa-pools=16 / wpp / pmode / no-pme / no-psnr / no-ssim / log-level=2 / input-csp=1 / input-res=1920x1038 / interlace=0 / total-frames=177880 / level-idc=0 / high-tier=1 / uhd-bd=0 / ref=6 / no-allow-non-conformance / repeat-headers / annexb / aud / no-eob / no-eos / no-hrd / info / hash=0 / no-temporal-layers / open-gop / min-keyint=24 / keyint=250 / gop-lookahead=0 / bframes=8 / b-adapt=2 / b-pyramid / bframe-bias=0 / rc-lookahead=60 / lookahead-slices=0 / NTM4NzU=uuDQuD2mJt9fsCf / scenecut=40 / no-hist-scenecut / radl=0 / no-splice / no-intra-refresh / ctu=64 / min-cu-size=8 / no-rect / no-amp / max-tu-size=32 / tu-inter-depth=4 / tu-intra-depth=4 / limit-tu=0 / rdoq-level=2 / dynamic-rd=0.00 / no-ssim-rd / signhide / no-tskip / nr-intra=0 / nr-inter=0 / no-constrained-intra / strong-intra-smoothing / max-merge=5 / limit-refs=0 / no-limit-modes / me=3 / subme=7 / merange=57 / temporal-mvp / no-frame-dup / no-hme / weightp / weightb / no-analyze-src-pics / deblock=-3:-3 / no-sao / no-sao-non-deblock / rd=4 / selective-sao=0 / early-skip / no-rskip / no-fast-intra / no-tskip-fast / no-cu-lossless / b-intra / no-splitrd-skip / rdpenalty=0 / psy-rd=1.25 / psy-rdoq=1.00 / no-rd-refine / no-lossless / cbqpoffs=0 / crqpoffs=0 / rc=crf / crf=19.0 / qcomp=0.60 / qpstep=4 / stats-write=0 / stats-read=0 / ipratio=1.30 / pbratio=1.20 / aq-mode=3 / aq-strength=1.00 / no-cutree / zone-count=0 / no-strict-cbr / qg-size=32 / no-rc-grain / qpmax=69 / qpmin=0 / no-const-vbv / sar=0 / overscan=0 / videoformat=5 / range=0 / colorprim=1 / transfer=1 / colormatrix=1 / chromaloc=1 / chromaloc-top=0 / chromaloc-bottom=0 / NTM4NzU= / display-window=0 / cll=0,0 / min-luma=0 / max-luma=1023 / log2-max-poc-lsb=8 / vui-timing-info / vui-hrd-info / slices=1 / no-opt-qp-pps / no-opt-ref-list-length-pps / no-multi-pass-opt-rps / scenecut-bias=0.05 / hist-threshold=0.03 / no-opt-cu-delta-qp / no-aq-motion / no-hdr10 / no-hdr10-opt / no-dhdr10-opt / no-idr-recovery-sei / analysis-reuse-level=0 / analysis-save-reuse-level=0 / analysis-load-reuse-level=0 / scale-factor=0 / refine-intra=0 / refine-inter=0 / refine-mv=1 / refine-ctu-distortion=0 / no-limit-sao / ctu-info=0 / no-lowpass-dct / refine-analysis-type=0 / copy-pic=1 / max-ausize-factor=1.0 / no-dynamic-refine / no-single-sei / no-hevc-aq / no-svt / no-field / qp-adaptation-range=1.00 / scenecut-aware-qp=0conformance-window-offsets / right=0 / bottom=0 / NTM4NzU= / decoder-max-rate=0 / no-vbv-live-multi-pass
  33. Language                                 : Japanese
  34. Default                                  : Yes
  35. Forced                                   : No
  36. Color range                              : Limited
  37. Color primaries                          : BT.709
  38. Transfer characteristics                 : BT.709
  39. Matrix coefficients                      : BT.709
  40. Audio
  41. ID                                       : 2
  42. Format                                   : E-AC-3
  43. Format/Info                              : Enhanced AC-3
  44. Commercial name                          : Dolby Digital Plus
  45. Codec ID                                 : A_EAC3
  46. Duration                                 : 2 h 3 min
  47. Bit rate mode                            : Constant
  48. Bit rate                                 : 1 024 kb/s
  49. Channel(s)                               : 6 channels
  50. Channel layout                           : L R C LFE Ls Rs
  51. Sampling rate                            : 48.0 kHz
  52. Frame rate                               : 31.250 FPS (1536 SPF)
  53. Compression mode                         : Lossy
  54. Stream size                              : 905 MiB (9%)
  55. Language                                 : Japanese
  56. Service kind                             : Complete Main
  57. Default                                  : Yes
  58. Forced                                   : No
  59. Text #1
  60. ID                                       : 3
  61. Format                                   : UTF-8
  62. Codec ID                                 : S_TEXT/UTF8
  63. Codec ID/Info                            : UTF-8 Plain Text
  64. Duration                                 : 1 h 58 min
  65. Bit rate                                 : 47 b/s
  66. Count of elements                        : 1643
  67. Stream size                              : 41.0 KiB (0%)
  68. Title                                    : Simplified Chinese
  69. Language                                 : Chinese
  70. Default                                  : Yes
  71. Forced                                   : No
  72. Text #2
  73. ID                                       : 4
  74. Format                                   : UTF-8
  75. Codec ID                                 : S_TEXT/UTF8
  76. Codec ID/Info                            : UTF-8 Plain Text
  77. Duration                                 : 1 h 58 min
  78. Bit rate                                 : 47 b/s
  79. Count of elements                        : 1643
  80. Stream size                              : 41.0 KiB (0%)
  81. Title                                    : Traditional Chinese
  82. Language                                 : Chinese
  83. Default                                  : No
  84. Forced                                   : No
  85. Text #3
  86. ID                                       : 5
  87. Format                                   : UTF-8
  88. Codec ID                                 : S_TEXT/UTF8
  89. Codec ID/Info                            : UTF-8 Plain Text
  90. Duration                                 : 2 h 2 min
  91. Bit rate                                 : 47 b/s
  92. Count of elements                        : 1506
  93. Stream size                              : 42.2 KiB (0%)
  94. Language                                 : English
  95. Default                                  : No
  96. Forced                                   : No
  97. Menu
  98. 00:00:00.000                             : en:Chapter 1
  99. 00:03:38.625                             : en:Chapter 2
  100. 00:11:45.500                             : en:Chapter 3
  101. 00:27:50.917                             : en:Chapter 4
  102. 00:39:56.417                             : en:Chapter 5
  103. 00:53:59.333                             : en:Chapter 6
  104. 01:07:56.792                             : en:Chapter 7
  105. 01:17:53.458                             : en:Chapter 8
  106. 01:30:28.875                             : en:Chapter 9
  107. 01:37:36.042                             : en:Chapter 10
  108. 01:55:40.708                             : en:Chapter 11
  109. 01:59:39.833                             : en:Chapter 12
  110. 02:03:30.833                             : en:Chapter 13
复制代码

















保举请利用qBittorrent,utorrent,transmission等标准BT软件下载!以获得最快速度。奉求保种!





回复

使用道具 举报

懒得打字嘛,点击右侧快捷回复 【右侧内容,后台自定义】
您需要登录后才可以回帖 登录 | 立即加入

本版积分规则

Archiver|小黑屋| 蓝光电影网 |网站地图

Copyright © 2021 Comsenz Inc. Powered by 蓝光电影网

蓝光电影网

本站内容由用户自主分享和转载自互联网,转载目的在于传递更多信息,并不代表本网赞同其观点和对其真实性负责。

如有侵权、违反国家法律政策行为,请联系我们,我们会第一时间及时清除和处理!

举报反馈邮箱:[email protected]

快速回复 返回顶部 返回列表