找回密码

蓝光电影网

查看: 151|回复: 1

[剧情] 蕾蒙娜和姐姐[简繁英字幕].Ramona.and.Beezus.2010.BluRay.1080p.DTS-HD.MA5.1.x265.10bit-ALT 8.01GB

[复制链接]
蓝光币
8
发表于 2022-7-29 01:58:14 | 显示全部楼层 |阅读模式


◎标  题 蕾蒙娜和姐姐
◎译  名 蕾梦娜和碧祖丝 / Ramona
◎片  名 Ramona and Beezus
◎年  代 2010
◎产  地 美国
◎类  别 笑剧 / 家庭
◎语  言 英语
◎上映日期 2010-07-23(美国)
◎IMDb评分 6.5/10 (18322人评价)
◎IMDb链接 https://www.imdb.com/title/tt0493949/
◎豆瓣评分 8.0/10 (21255人评价)
◎豆瓣链接 https://movie.douban.com/subject/3071517/
◎片  长 103分钟
◎导  演 伊丽莎白·艾伦 Elizabeth Allen
       伊丽莎白·艾兰 Elizabeth Allan
◎编  剧 劳丽·克雷格 Laurie Craig
       尼克·普斯泰 Nick Pustay
       碧弗利·柯利瑞 Beverly Cleary
◎演  员 乔伊·金 Joey King
       赛琳娜·戈麦斯 Selena Gomez
       约翰·考伯特 John Corbett
       布丽姬·穆娜 Bridget Moynahan
       金妮弗·古德温 Ginnifer Goodwin
       乔什·杜哈明 Josh Duhamel
       吴珊卓 Sandra Oh
       谢拉·麦克康米克 Sierra McCormick
       杰森·斯佩瓦克 Jason Spevack
◎标  签 美国 / 笑剧 / 家庭 / 亲情 / 儿童 / 青春 / 温情 / 2010
◎简  介
    9岁的小女孩蕾蒙娜·昆比(乔伊·金 Joey King 饰)生活在一个幸运完竣的家庭里,父亲罗伯特(约翰·考伯特 John Corbett 饰)和善宽大,尽心支持着这个家;母亲桃乐丝(布丽姬·穆娜 Bridget Moynahan 饰)善良温柔,悉心打理家中的一切;她的姐姐碧祖丝(赛琳娜·戈麦斯 Selena Gomez 饰)美丽聪慧,品学兼优,姐妹俩还有一个牙牙学语的小妹妹。古灵精怪的蕾蒙娜天天纵情顽耍、调皮捣鬼,无忧无虑地享用这份好像天堂般的欢畅时光。但是随着父亲的失业,昆比家的欢畅不复存在,大家脸上挂满笑容。蕾蒙娜不愿看到这一切,她决议用自己的奇思妙想为家人们找回久违的欢畅……                                                                      本片按照作家碧弗利·柯利瑞(Beverly Cleary)的小说改编。
  1. ##### MediaInfo ######
  2. General
  3. Unique ID                                : 47534825080754299245517407478216067289 (0x23C2DFD2489B5D4D57137D0758C708D9)
  4. Complete name                            : Ramona.and.Beezus.2010.BluRay.1080p.DTS-HD.MA5.1.x265.10bit-ALT.mkv
  5. Format                                   : Matroska
  6. Format version                           : Version 4
  7. File size                                : 8.00 GiB
  8. Duration                                 : 1 h 43 min
  9. Overall bit rate mode                    : Variable
  10. Overall bit rate                         : 11.1 Mb/s
  11. Encoded date                             : UTC 2022-03-10 07:52:43
  12. Writing application                      : mkvmerge v49.0.0 ('Sick Of Losing Soulmates') 64-bit
  13. Writing library                          : libebml v1.4.0 + libmatroska v1.6.1
  14. Video
  15. ID                                       : 1
  16. Format                                   : HEVC
  17. Format/Info                              : High Efficiency Video Coding
  18. Format profile                           : Main [email protected]@High
  19. Codec ID                                 : V_MPEGH/ISO/HEVC
  20. Duration                                 : 1 h 43 min
  21. Bit rate                                 : 7 562 kb/s
  22. Width                                    : 1 920 pixels
  23. Height                                   : 800 pixels
  24. Display aspect ratio                     : 2.40:1
  25. Frame rate mode                          : Constant
  26. Frame rate                               : 23.976 (24000/1001/53875) FPS
  27. Color space                              : YUV
  28. Chroma subsampling                       : 4:2:0
  29. Bit depth                                : 10 bits
  30. Bits/(Pixel*Frame)                       : 0.205
  31. Stream size                              : 5.47 GiB (68%)
  32. Title                                    : HEVC, [email protected]@High, 24/1.001 fps @ 7561 kbps
  33. Writing library                          : x265 3.4+14-gd419c7152:[Windows][GCC 10.2.0][64 bit] 10bit
  34. Encoding settings                        : cpuid=538751111039 / frame-threads=4 / numa-pools=20 / wpp / pmode / pme / no-psnr / no-ssim / log-level=2 / input-csp=1 / input-res=1920x800 / interlace=0 / total-frames=148873 / level-idc=51 / high-tier=1 / uhd-bd=0 / ref=5 / no-allow-non-conformance / no-repeat-headers / annexb / no-aud / no-hrd / info / hash=0 / no-temporal-layers / open-gop / min-keyint=24 / keyint=240 / gop-lookahead=0 / bframes=6 / b-adapt=2 / b-pyramid / bframe-bias=0 / rc-lookahead=40 / lookahead-slices=0 / NTM4NzU=uuDQuD2mJt9fsCf / scenecut=40 / hist-scenecut=0 / radl=0 / no-splice / no-intra-refresh / ctu=32 / min-cu-size=8 / no-rect / no-amp / max-tu-size=32 / tu-inter-depth=3 / tu-intra-depth=3 / limit-tu=4 / rdoq-level=2 / dynamic-rd=0.00 / no-ssim-rd / signhide / no-tskip / nr-intra=0 / nr-inter=0 / no-constrained-intra / no-strong-intra-smoothing / max-merge=4 / limit-refs=1 / limit-modes / me=3 / subme=4 / merange=25 / temporal-mvp / no-frame-dup / no-hme / weightp / weightb / no-analyze-src-pics / deblock=-3:-3 / no-sao / no-sao-non-deblock / rd=6 / selective-sao=0 / no-early-skip / rskip / no-fast-intra / no-tskip-fast / no-cu-lossless / b-intra / no-splitrd-skip / rdpenalty=0 / psy-rd=2.00 / psy-rdoq=1.00 / no-rd-refine / no-lossless / cbqpoffs=0 / crqpoffs=0 / rc=crf / crf=18.5 / qcomp=0.65 / qpstep=4 / stats-write=0 / stats-read=0 / vbv-maxrate=80000 / vbv-bufsize=80000 / vbv-init=0.9 / crf-max=0.0 / crf-min=0.0 / ipratio=1.40 / pbratio=1.30 / aq-mode=2 / aq-strength=0.85 / cutree / zone-count=0 / no-strict-cbr / qg-size=32 / no-rc-grain / qpmax=69 / qpmin=0 / no-const-vbv / sar=1 / overscan=0 / videoformat=5 / range=0 / colorprim=1 / transfer=1 / colormatrix=1 / chromaloc=0 / display-window=0 / cll=0,0 / min-luma=0 / max-luma=1023 / log2-max-poc-lsb=8 / vui-timing-info / vui-hrd-info / slices=1 / no-opt-qp-pps / no-opt-ref-list-length-pps / no-multi-pass-opt-rps / scenecut-bias=0.05 / hist-threshold=0.03 / no-opt-cu-delta-qp / no-aq-motion / no-hdr10 / no-hdr10-opt / no-dhdr10-opt / no-idr-recovery-sei / analysis-reuse-level=0 / analysis-save-reuse-level=0 / analysis-load-reuse-level=0 / scale-factor=0 / refine-intra=0 / refine-inter=0 / refine-mv=1 / refine-ctu-distortion=0 / no-limit-sao / ctu-info=0 / no-lowpass-dct / refine-analysis-type=0 / copy-pic=1 / max-ausize-factor=1.0 / no-dynamic-refine / no-single-sei / no-hevc-aq / no-svt / no-field / qp-adaptation-range=1.00 / no-scenecut-aware-qpconformance-window-offsets / right=0 / bottom=0 / NTM4NzU= / decoder-max-rate=0
  35. Language                                 : English
  36. Default                                  : Yes
  37. Forced                                   : No
  38. Color range                              : Limited
  39. Color primaries                          : BT.709
  40. Transfer characteristics                 : BT.709
  41. Matrix coefficients                      : BT.709
  42. Audio
  43. ID                                       : 2
  44. Format                                   : DTS XLL
  45. Format/Info                              : Digital Theater Systems
  46. Commercial name                          : DTS-HD Master Audio
  47. Codec ID                                 : A_DTS
  48. Duration                                 : 1 h 43 min
  49. Bit rate mode                            : Variable
  50. Bit rate                                 : 3 380 kb/s
  51. Channel(s)                               : 6 channels
  52. Channel layout                           : C L R Ls Rs LFE
  53. Sampling rate                            : 48.0 kHz
  54. Frame rate                               : 93.750 FPS (512 SPF)
  55. Bit depth                                : 24 bits
  56. Compression mode                         : Lossless
  57. Stream size                              : 2.44 GiB (31%)
  58. Title                                    : English DTS-HD Master Audio 5.1 @ 3380 kbps
  59. Language                                 : English
  60. Default                                  : Yes
  61. Forced                                   : No
  62. Text #1
  63. ID                                       : 3
  64. Format                                   : PGS
  65. Codec ID                                 : S_HDMV/PGS
  66. Codec ID/Info                            : Picture based subtitle format used on BDs/HD-DVDs
  67. Duration                                 : 1 h 42 min
  68. Bit rate                                 : 82.4 kb/s
  69. Count of elements                        : 3617
  70. Stream size                              : 60.5 MiB (1%)
  71. Title                                    : Eng/SUP
  72. Language                                 : English
  73. Default                                  : No
  74. Forced                                   : No
  75. Text #2
  76. ID                                       : 4
  77. Format                                   : PGS
  78. Codec ID                                 : S_HDMV/PGS
  79. Codec ID/Info                            : Picture based subtitle format used on BDs/HD-DVDs
  80. Duration                                 : 1 h 36 min
  81. Bit rate                                 : 24.0 kb/s
  82. Count of elements                        : 2872
  83. Stream size                              : 16.5 MiB (0%)
  84. Title                                    : Chs/SUP  简体
  85. Language                                 : Chinese
  86. Default                                  : Yes
  87. Forced                                   : No
  88. Text #3
  89. ID                                       : 5
  90. Format                                   : PGS
  91. Codec ID                                 : S_HDMV/PGS
  92. Codec ID/Info                            : Picture based subtitle format used on BDs/HD-DVDs
  93. Duration                                 : 1 h 36 min
  94. Bit rate                                 : 24.7 kb/s
  95. Count of elements                        : 2872
  96. Stream size                              : 17.0 MiB (0%)
  97. Title                                    : Cht/SUP  繁体
  98. Language                                 : Chinese
  99. Default                                  : No
  100. Forced                                   : No
  101. Menu
  102. 00:00:00.000                             : en:第 01 章
  103. 00:03:29.751                             : en:第 02 章
  104. 00:09:35.992                             : en:第 03 章
  105. 00:12:09.103                             : en:第 04 章
  106. 00:15:57.957                             : en:第 05 章
  107. 00:18:09.630                             : en:第 06 章
  108. 00:22:11.789                             : en:第 07 章
  109. 00:28:05.434                             : en:第 08 章
  110. 00:31:56.123                             : en:第 09 章
  111. 00:35:29.919                             : en:第 10 章
  112. 00:37:57.901                             : en:第 11 章
  113. 00:40:08.823                             : en:第 12 章
  114. 00:42:36.971                             : en:第 13 章
  115. 00:46:49.390                             : en:第 14 章
  116. 00:50:15.930                             : en:第 15 章
  117. 00:54:48.619                             : en:第 16 章
  118. 01:00:21.117                             : en:第 17 章
  119. 01:04:33.620                             : en:第 18 章
  120. 01:09:55.400                             : en:第 19 章
  121. 01:15:17.847                             : en:第 20 章
  122. 01:20:56.560                             : en:第 21 章
  123. 01:28:41.691                             : en:第 22 章
  124. 01:33:03.328                             : en:第 23 章
  125. 01:35:43.613                             : en:第 24 章
复制代码

















保举请利用qBittorrent,utorrent,transmission等标准BT软件下载!以获得最快速度。奉求保种!





回复

使用道具 举报

蓝光币
469
发表于 2022-7-29 22:13:37 | 显示全部楼层

既然你诚信诚意的推荐了,那我就勉为其难的看看吧!蓝光电影网不走平凡路。
回复 支持 反对

使用道具 举报

懒得打字嘛,点击右侧快捷回复 【右侧内容,后台自定义】
您需要登录后才可以回帖 登录 | 立即加入

本版积分规则

Archiver|小黑屋| 蓝光电影网 |网站地图

Copyright © 2021 Comsenz Inc. Powered by 蓝光电影网

蓝光电影网

本站内容由用户自主分享和转载自互联网,转载目的在于传递更多信息,并不代表本网赞同其观点和对其真实性负责。

如有侵权、违反国家法律政策行为,请联系我们,我们会第一时间及时清除和处理!

举报反馈邮箱:[email protected]

快速回复 返回顶部 返回列表