找回密码

蓝光电影网

查看: 49|回复: 0

[剧情] 红胡子[简繁英字幕].Red.Beard.1965.BluRay.1080p.DTS-HD.MA.4.0.x265.10bit-ALT 13.56GB

[复制链接]
蓝光币
7
发表于 2022-7-29 01:58:13 | 显示全部楼层 |阅读模式


◎标  题 红胡子
◎译  名 赤胡子 / Red Beard / Akahige
◎片  名 赤ひげ
◎年  代 1965
◎产  地 日本
◎类  别 剧情
◎语  言 日语
◎上映日期 1965-04-03(日本)
◎IMDb评分 8.4/10 (18366人评价)
◎IMDb链接 https://www.imdb.com/title/tt0058888/
◎豆瓣评分 8.8/10 (11613人评价)
◎豆瓣链接 https://movie.douban.com/subject/1296679/
◎片  长 185分钟
◎导  演 黑泽明 Akira Kurosawa
◎编  剧 井手雅人 Masato Ide
       小国豪杰 Hideo Oguni
       菊岛隆三 Ryûzô Kikushima
       黑泽明 Akira Kurosawa
       山本周五郎 Shûgorô Yamamoto
◎演  员 三船敏郎 Toshirô Mifune
       加山雄三 Yûzô Kayama
       山崎努 Tsutomu Yamazaki
       团令子 Reiko Dan
       桑野美雪 Miyuki Kuwano
       香川京子 Kyôko Kagawa
       江原达怡 Tatsuyoshi Ehara
       二木照美 Terumi Niki
       根岸明美 Akemi Negishi
       头师佳孝 Yoshitaka Zushi
       土屋嘉男 Yoshio Tsuchiya
       东野英治郎 Eijirô Tôno
       志村乔 Takashi Shimura
       笠智众 Chishû Ryû
       杉村春子 Haruko Sugimura
       田中绢代 Kinuyo Tanaka
       柳永二郎 Eijirô Yanagi
       三井弘次 Kôji Mitsui
       西村晃 Kô Nishimura
       千叶信男 Nobuo Chiba
       藤原釜足 Kamatari Fujiwara
       三津田健 Ken Mitsuda
       藤山阳子 Yôko Fujiyama
       内藤洋子 Naito Yoko
       七尾伶子 Reiko Nanao
       辻伊万里 Imari Tsuji
       野村昭子 Akiko Nomura
       三户部须惠 Sue Mitobe
       菅井琴 Kin Sugai
       荒木道子 Michiko Araki
       左卜全 Bokuzen Hidari
       渡边笃 Atsushi Watanabe
       小川安三 Yasuzô Ogawa
       佐田丰 Yutaka Sada
       泽村伊纪雄 Ikio Sawamura
       本间文子 Noriko Honma
       中村美代子 Miyoko Nakamura
       风见章子 Akiko Kazami
       大木正司 Shôji Ôki
       广濑正一 Shôichi Hirose
       大久保正信 Masanobu Ôkubo
       常田富士男 Fujio Tokita
       田中浩 Hiroshi Tanaka
       久世龙 Ryû Kuze
       石川进 Susumu Ishikawa
       堀雄二 Yûji Hori
       堤康久 Yasuhisa Tsutsumi
       铃木和夫 Kazuo Suzuki
       菊岛隆三 Ryûzô Kikushima
       田中友幸 Tomoyuki Tanaka
       佐藤胜 Masaru Satô
       中井朝一 Asakazu Nakai
       斋藤孝雄 Takao Saitô
       村木与四郎 Yoshirô Muraki
       出目昌伸 Masanobu Deme
       森谷司郎 Shirô Moritani
◎标  签 黑泽明 / 日本 / 三船敏郎 / 日本电影 / 黑白 / 黑澤明 / 剧情 / 1965
◎简  介
  刚结业的医学院门生保本(加山雄三 Yuzo Kayama 饰),在父亲的先容下,来到穷乡僻壤的小石川医院练习。他的教员是一位被称作红胡子(三船敏郎 Toshiro Mifune 饰)的怪僻医师。开初,向往长崎的保本对这个穷户窟厌恶之极,并迁怒于红胡子,感觉自己被骗上当,无用武之地。                                    
                                红胡子是这里远近著名的杏林高手,他没有对保本提什么要求,而是冷静地行医,不畏权贵,不计报酬,手下治愈的病人不成胜数,其中包括因受虐精神变态的少妇(香川京子 Kyôko Kagawa 饰),因酗酒致使半身麻痹的醉汉,因被销售至青楼身患性病的雏妓等等。在辅佐红胡子治病救人的进程中,保本逐步发现了医德的重要,并批改了自己的人生态度……
  1. ##### MediaInfo ######
  2. General
  3. Unique ID                                : 182477630340505850015695569307568862128 (0x8947E9CA72AC93B8291C9F3FCD6A73B0)
  4. Complete name                            : Red.Beard.1965.BluRay.1080p.DTS-HD.MA.4.0.x265.10bit-ALT.mkv
  5. Format                                   : Matroska
  6. Format version                           : Version 4
  7. File size                                : 13.6 GiB
  8. Duration                                 : 3 h 0 min
  9. Overall bit rate mode                    : Variable
  10. Overall bit rate                         : 10.8 Mb/s
  11. Encoded date                             : UTC 2022-03-20 01:00:18
  12. Writing application                      : mkvmerge v49.0.0 ('Sick Of Losing Soulmates') 64-bit
  13. Writing library                          : libebml v1.4.0 + libmatroska v1.6.1
  14. Video
  15. ID                                       : 1
  16. Format                                   : HEVC
  17. Format/Info                              : High Efficiency Video Coding
  18. Format profile                           : Main [email protected]@High
  19. Codec ID                                 : V_MPEGH/ISO/HEVC
  20. Duration                                 : 3 h 0 min
  21. Bit rate                                 : 8 961 kb/s
  22. Width                                    : 1 920 pixels
  23. Height                                   : 756 pixels
  24. Display aspect ratio                     : 2.540
  25. Frame rate mode                          : Constant
  26. Frame rate                               : 23.976 (24000/1001/53875) FPS
  27. Color space                              : YUV
  28. Chroma subsampling                       : 4:2:0
  29. Bit depth                                : 10 bits
  30. Bits/(Pixel*Frame)                       : 0.257
  31. Stream size                              : 11.3 GiB (83%)
  32. Title                                    : HEVC, [email protected]@High, 24/1.001 fps @ 8960 kbps
  33. Writing library                          : x265 3.5+36-1f2c8da77:[Windows][GCC 11.2.0][64 bit] 10bit
  34. Encoding settings                        : cpuid=538751111039 / frame-threads=4 / numa-pools=16 / wpp / pmode / pme / no-psnr / no-ssim / log-level=2 / input-csp=1 / input-res=1920x756 / interlace=0 / total-frames=259204 / level-idc=51 / high-tier=1 / uhd-bd=0 / ref=5 / no-allow-non-conformance / no-repeat-headers / annexb / no-aud / no-eob / no-eos / no-hrd / info / hash=0 / no-temporal-layers / open-gop / min-keyint=24 / keyint=240 / gop-lookahead=0 / bframes=6 / b-adapt=2 / b-pyramid / bframe-bias=0 / rc-lookahead=40 / lookahead-slices=0 / NTM4NzU=uuDQuD2mJt9fsCf / scenecut=40 / no-hist-scenecut / radl=0 / no-splice / no-intra-refresh / ctu=32 / min-cu-size=8 / no-rect / no-amp / max-tu-size=32 / tu-inter-depth=3 / tu-intra-depth=3 / limit-tu=4 / rdoq-level=2 / dynamic-rd=0.00 / no-ssim-rd / signhide / no-tskip / nr-intra=0 / nr-inter=0 / no-constrained-intra / no-strong-intra-smoothing / max-merge=4 / limit-refs=1 / limit-modes / me=3 / subme=4 / merange=25 / temporal-mvp / no-frame-dup / no-hme / weightp / weightb / no-analyze-src-pics / deblock=-3:-3 / no-sao / no-sao-non-deblock / rd=6 / selective-sao=0 / no-early-skip / rskip / no-fast-intra / no-tskip-fast / no-cu-lossless / b-intra / no-splitrd-skip / rdpenalty=0 / psy-rd=2.00 / psy-rdoq=1.00 / no-rd-refine / no-lossless / cbqpoffs=0 / crqpoffs=0 / rc=crf / crf=19.5 / qcomp=0.65 / qpstep=4 / stats-write=0 / stats-read=0 / vbv-maxrate=80000 / vbv-bufsize=80000 / vbv-init=0.9 / min-vbv-fullness=50.0 / max-vbv-fullness=80.0 / crf-max=0.0 / crf-min=0.0 / ipratio=1.40 / pbratio=1.30 / aq-mode=2 / aq-strength=0.85 / cutree / zone-count=0 / no-strict-cbr / qg-size=32 / no-rc-grain / qpmax=69 / qpmin=0 / no-const-vbv / sar=1 / overscan=0 / videoformat=5 / range=0 / colorprim=1 / transfer=1 / colormatrix=1 / chromaloc=0 / display-window=0 / cll=0,0 / min-luma=0 / max-luma=1023 / log2-max-poc-lsb=8 / vui-timing-info / vui-hrd-info / slices=1 / no-opt-qp-pps / no-opt-ref-list-length-pps / no-multi-pass-opt-rps / scenecut-bias=0.05 / hist-threshold=0.03 / no-opt-cu-delta-qp / no-aq-motion / no-hdr10 / no-hdr10-opt / no-dhdr10-opt / no-idr-recovery-sei / analysis-reuse-level=0 / analysis-save-reuse-level=0 / analysis-load-reuse-level=0 / scale-factor=0 / refine-intra=0 / refine-inter=0 / refine-mv=1 / refine-ctu-distortion=0 / no-limit-sao / ctu-info=0 / no-lowpass-dct / refine-analysis-type=0 / copy-pic=1 / max-ausize-factor=1.0 / no-dynamic-refine / no-single-sei / no-hevc-aq / no-svt / no-field / qp-adaptation-range=1.00 / scenecut-aware-qp=0conformance-window-offsets / right=0 / bottom=0 / NTM4NzU= / decoder-max-rate=0 / no-vbv-live-multi-pass
  35. Language                                 : English
  36. Default                                  : Yes
  37. Forced                                   : No
  38. Color range                              : Limited
  39. Color primaries                          : BT.709
  40. Transfer characteristics                 : BT.709
  41. Matrix coefficients                      : BT.709
  42. Audio #1
  43. ID                                       : 2
  44. Format                                   : DTS XLL
  45. Format/Info                              : Digital Theater Systems
  46. Commercial name                          : DTS-HD Master Audio
  47. Codec ID                                 : A_DTS
  48. Duration                                 : 3 h 0 min
  49. Bit rate mode                            : Variable
  50. Bit rate                                 : 1 567 kb/s
  51. Channel(s)                               : 4 channels
  52. Channel layout                           : C L R Cb
  53. Sampling rate                            : 48.0 kHz
  54. Frame rate                               : 93.750 FPS (512 SPF)
  55. Bit depth                                : 16 bits
  56. Compression mode                         : Lossless
  57. Stream size                              : 1.97 GiB (15%)
  58. Title                                    : Japanese DTS-HD Master Audio 4.0 @ 1570 kbps
  59. Language                                 : Japanese
  60. Default                                  : Yes
  61. Forced                                   : No
  62. Audio #2
  63. ID                                       : 3
  64. Format                                   : AC-3
  65. Format/Info                              : Audio Coding 3
  66. Commercial name                          : Dolby Digital
  67. Codec ID                                 : A_AC3
  68. Duration                                 : 2 h 59 min
  69. Bit rate mode                            : Constant
  70. Bit rate                                 : 192 kb/s
  71. Channel(s)                               : 2 channels
  72. Channel layout                           : L R
  73. Sampling rate                            : 48.0 kHz
  74. Frame rate                               : 31.250 FPS (1536 SPF)
  75. Compression mode                         : Lossy
  76. Stream size                              : 247 MiB (2%)
  77. Title                                    : Commentary by Kurosawa film scholar Stephen Prince
  78. Language                                 : English
  79. Service kind                             : Complete Main
  80. Default                                  : No
  81. Forced                                   : No
  82. Text #1
  83. ID                                       : 4
  84. Format                                   : PGS
  85. Codec ID                                 : S_HDMV/PGS
  86. Codec ID/Info                            : Picture based subtitle format used on BDs/HD-DVDs
  87. Duration                                 : 2 h 59 min
  88. Bit rate                                 : 27.9 kb/s
  89. Count of elements                        : 2812
  90. Stream size                              : 35.7 MiB (0%)
  91. Title                                    : Eng/SUP
  92. Language                                 : English
  93. Default                                  : No
  94. Forced                                   : No
  95. Text #2
  96. ID                                       : 5
  97. Format                                   : PGS
  98. Codec ID                                 : S_HDMV/PGS
  99. Codec ID/Info                            : Picture based subtitle format used on BDs/HD-DVDs
  100. Duration                                 : 2 h 58 min
  101. Bit rate                                 : 13.4 kb/s
  102. Count of elements                        : 2788
  103. Stream size                              : 17.1 MiB (0%)
  104. Title                                    : Chs/SUP  简体
  105. Language                                 : Chinese
  106. Default                                  : Yes
  107. Forced                                   : No
  108. Text #3
  109. ID                                       : 6
  110. Format                                   : PGS
  111. Codec ID                                 : S_HDMV/PGS
  112. Codec ID/Info                            : Picture based subtitle format used on BDs/HD-DVDs
  113. Duration                                 : 2 h 58 min
  114. Bit rate                                 : 13.9 kb/s
  115. Count of elements                        : 2788
  116. Stream size                              : 17.7 MiB (0%)
  117. Title                                    : Cht/SUP  繁体
  118. Language                                 : Chinese
  119. Default                                  : No
  120. Forced                                   : No
  121. Menu
  122. 00:00:00.000                             : en:00:00:00.000
  123. 00:10:30.088                             : en:00:10:30.088
  124. 00:18:16.429                             : en:00:18:16.429
  125. 00:24:19.833                             : en:00:24:19.833
  126. 00:37:14.858                             : en:00:37:14.858
  127. 00:45:25.139                             : en:00:45:25.139
  128. 00:49:04.608                             : en:00:49:04.608
  129. 00:52:54.588                             : en:00:52:54.588
  130. 01:03:05.240                             : en:01:03:05.240
  131. 01:32:26.916                             : en:01:32:26.916
  132. 01:33:53.503                             : en:01:33:53.503
  133. 01:37:35.058                             : en:01:37:35.058
  134. 01:42:02.408                             : en:01:42:02.408
  135. 01:51:35.008                             : en:01:56:55.884
  136. 01:56:59.635                             : en:02:02:20.542
  137. 02:04:46.684                             : en:02:10:07.591
  138. 02:19:15.260                             : en:02:24:36.167
  139. 02:25:00.689                             : en:02:30:21.596
  140. 02:34:33.261                             : en:02:39:54.168
  141. 02:37:40.615                             : en:02:43:01.522
  142. 02:40:09.305                             : en:02:45:30.212
  143. 02:45:03.974                             : en:02:50:24.881
  144. 02:53:11.128                             : en:02:58:32.035
  145. 03:00:02.956                             : en:03:05:23.863
复制代码

















保举请利用qBittorrent,utorrent,transmission等标准BT软件下载!以获得最快速度。奉求保种!





回复

使用道具 举报

懒得打字嘛,点击右侧快捷回复 【右侧内容,后台自定义】
您需要登录后才可以回帖 登录 | 立即加入

本版积分规则

Archiver|小黑屋| 蓝光电影网 |网站地图

Copyright © 2021 Comsenz Inc. Powered by 蓝光电影网

蓝光电影网

本站内容由用户自主分享和转载自互联网,转载目的在于传递更多信息,并不代表本网赞同其观点和对其真实性负责。

如有侵权、违反国家法律政策行为,请联系我们,我们会第一时间及时清除和处理!

举报反馈邮箱:[email protected]

快速回复 返回顶部 返回列表