找回密码

蓝光电影网

查看: 185|回复: 0

[剧情] 同栖生活[简繁英字幕].Parade.2009.1080p.BluRay.DD.5.0.x264-TAGHD 14.20GB

[复制链接]
蓝光币
8
发表于 2022-7-29 01:58:25 | 显示全部楼层 |阅读模式


◎标  题 同栖生活
◎译  名 东京同栖80后(港) / 检阅式 / Parêdo / Parade
◎片  名 パレード
◎年  代 2009
◎产  地 日本
◎类  别 剧情
◎语  言 日语
◎上映日期 2009-10-12(釜山电影节) / 2010-02-20(日本)
◎IMDb评分 7.2/10 (639人评价)
◎IMDb链接 https://www.imdb.com/title/tt1493070/
◎豆瓣评分 7.7/10 (7158人评价)
◎豆瓣链接 https://movie.douban.com/subject/3986152/
◎片  长 118分钟
◎导  演 行定勋 Isao Yukisada
◎编  剧 行定勋 Isao Yukisada
       吉田修一 Shûichi Yoshida
◎演  员 藤原龙也 Tatsuya Fujiwara
       香里奈 Karina
       贯地谷栞 Shihori Kanjiya
       林遣都 Kento Hayashi
       小出惠介 Keisuke Koide
       竹财辉之助 Terunosuke Takezai
       石桥莲司 Renji Ishibashi
       濑户夏实
       小澤真利奈 Marina Kozawa
       矢柴俊博 Toshihiro Yashiba
       木村绿子 Midoriko Kimura
       中村友理 Yuri Nakamura
       桃濑美咲 Misaki Momose
       野波麻帆 Maho Nonami
       波冈一喜 Kazuki Namioka
       今井刚 Tsuyoshi Imai
       山口修 Osamu Yamaguchi
◎简  介
  位于东京某公寓的单元内,居住着四个年轻人,他们是迷恋先辈女友的大门生杉本良介(小出恵介 饰)、深爱着作为演员男友的无业女大河内琴美(贯地谷しほり 饰)、一心想成为插画师的相马未来(香里奈 饰)以及整天为工作奔走忙碌的电影公司职员伊原直辉(藤原竜也 饰)。他们性情各异,倒 也心心相印,生活波涛不惊。某天,一个年仅18岁的男妓小悟(林遣都 饰)闯入他们的天下,概况安静和谐的生活就此失衡。与此同时,隔邻的奥秘邻人以及四周不竭发生的行丧事务也令这个布满躁动的天下进一步崩塌……                                    
                                本片按照吉田修一的同名原著改编,并荣获第60届柏林电影节国际影评人费比西奖。
  1. ##### MediaInfo ######
  2. General
  3. Unique ID                                : 246445324171818477176088344298220603337 (0xB967A49837FA49247E53F015203EC7C9)
  4. Complete name                            : Parade.2009.1080p.BluRay.DD.5.0.x264-TAGHD.mkv
  5. Format                                   : Matroska
  6. Format version                           : Version 4
  7. File size                                : 14.2 GiB
  8. Duration                                 : 1 h 58 min
  9. Overall bit rate                         : 17.2 Mb/s
  10. Encoded date                             : UTC 2022-07-26 02:26:59
  11. Writing application                      : mkvmerge v42.0.0 ('Overtime') 64-bit
  12. Writing library                          : libebml v1.3.10 + libmatroska v1.5.2
  13. Video
  14. ID                                       : 1
  15. Format                                   : AVC
  16. Format/Info                              : Advanced Video Codec
  17. Format profile                           : [email protected]
  18. Format settings                          : CABAC / 4 Ref Frames
  19. Format settings, CABAC                   : Yes
  20. Format settings, Reference frames        : 4 frames
  21. Codec ID                                 : V_MPEG4/ISO/AVC
  22. Duration                                 : 1 h 58 min
  23. Bit rate                                 : 16.5 Mb/s
  24. Width                                    : 1 920 pixels
  25. Height                                   : 1 080 pixels
  26. Display aspect ratio                     : 16:9
  27. Frame rate mode                          : Constant
  28. Frame rate                               : 23.976 (24000/1001/53875) FPS
  29. Color space                              : YUV
  30. Chroma subsampling                       : 4:2:0
  31. Bit depth                                : 8 bits
  32. Scan type                                : Progressive
  33. Bits/(Pixel*Frame)                       : 0.332
  34. Stream size                              : 13.6 GiB (96%)
  35. Writing library                          : x264 core 142 r2431+42 c69a006 tMod [[email protected]:2:0 X86_64]
  36. Encoding settings                        : cabac=1 / ref=4 / deblock=1:-3:-3 / analyse=0x3:0x113 / me=umh / subme=11 / psy=1 / fade_compensate=0.00 / psy_rd=1.05:0.00 / mixed_ref=1 / me_range=32 / chroma_me=1 / trellis=2 / 8x8dct=1 / cqm=0 / deadzone=21,11 / fast_pskip=0 / chroma_qp_offset=-2 / threads=12 / lookahead_threads=2 / sliced_threads=0 / nr=0 / decimate=0 / interlaced=0 / NTM4NzU= / bluray_compat=0 / constrained_intra=0 / fgo=0 / bframes=9 / b_pyramid=2 / b_adapt=2 / b_bias=0 / direct=3 / weightb=1 / open_gop=0 / weightp=2 / keyint=250 / keyint_min=23 / NTM4NzU=uuDQuD2mJt9fsCf / scenecut=40 / intra_refresh=0 / rc_lookahead=60 / rc=crf / mbtree=0 / crf=21.0000 / qcomp=0.60 / qpmin=0:0:0 / qpmax=69:69:69 / qpstep=4 / vbv_maxrate=62500 / vbv_bufsize=78125 / crf_max=0.0 / nal_hrd=none / filler=0 / NTM4NzU=LmsMAP37EqsCpk / ip_ratio=1.30 / pb_ratio=1.20 / aq=3:0.75 / aq-sensitivity=10.00 / aq-factor=1.00:1.00:1.00 / aq2=0 / aq3=0
  37. Default                                  : Yes
  38. Forced                                   : No
  39. Color range                              : Limited
  40. Color primaries                          : BT.709
  41. Transfer characteristics                 : BT.709
  42. Matrix coefficients                      : BT.709
  43. Audio
  44. ID                                       : 2
  45. Format                                   : AC-3
  46. Format/Info                              : Audio Coding 3
  47. Commercial name                          : Dolby Digital
  48. Codec ID                                 : A_AC3
  49. Duration                                 : 1 h 58 min
  50. Bit rate mode                            : Constant
  51. Bit rate                                 : 640 kb/s
  52. Channel(s)                               : 5 channels
  53. Channel layout                           : L R C Ls Rs
  54. Sampling rate                            : 48.0 kHz
  55. Frame rate                               : 31.250 FPS (1536 SPF)
  56. Compression mode                         : Lossy
  57. Stream size                              : 542 MiB (4%)
  58. Language                                 : Japanese
  59. Service kind                             : Complete Main
  60. Default                                  : Yes
  61. Forced                                   : No
  62. Text #1
  63. ID                                       : 3
  64. Format                                   : PGS
  65. Muxing mode                              : zlib
  66. Codec ID                                 : S_HDMV/PGS
  67. Codec ID/Info                            : Picture based subtitle format used on BDs/HD-DVDs
  68. Duration                                 : 1 h 57 min
  69. Bit rate                                 : 27.4 kb/s
  70. Count of elements                        : 2362
  71. Stream size                              : 23.1 MiB (0%)
  72. Language                                 : English
  73. Default                                  : No
  74. Forced                                   : No
  75. Text #2
  76. ID                                       : 4
  77. Format                                   : PGS
  78. Muxing mode                              : zlib
  79. Codec ID                                 : S_HDMV/PGS
  80. Codec ID/Info                            : Picture based subtitle format used on BDs/HD-DVDs
  81. Duration                                 : 1 h 53 min
  82. Bit rate                                 : 20.3 kb/s
  83. Count of elements                        : 2832
  84. Stream size                              : 16.5 MiB (0%)
  85. Title                                    : CHS
  86. Language                                 : Chinese
  87. Default                                  : Yes
  88. Forced                                   : No
  89. Text #3
  90. ID                                       : 5
  91. Format                                   : PGS
  92. Muxing mode                              : zlib
  93. Codec ID                                 : S_HDMV/PGS
  94. Codec ID/Info                            : Picture based subtitle format used on BDs/HD-DVDs
  95. Duration                                 : 1 h 53 min
  96. Bit rate                                 : 20.8 kb/s
  97. Count of elements                        : 2832
  98. Stream size                              : 16.9 MiB (0%)
  99. Title                                    : CHT
  100. Language                                 : Chinese
  101. Default                                  : No
  102. Forced                                   : No
  103. Menu
  104. 00:00:00.000                             : en:第 01 章
  105. 00:06:27.012                             : en:第 02 章
  106. 00:12:10.939                             : en:第 03 章
  107. 00:15:54.954                             : en:第 04 章
  108. 00:25:20.185                             : en:第 05 章
  109. 00:32:28.071                             : en:第 06 章
  110. 00:38:48.701                             : en:第 07 章
  111. 00:42:47.440                             : en:第 08 章
  112. 00:47:07.033                             : en:第 09 章
  113. 00:53:39.174                             : en:第 10 章
  114. 00:57:30.447                             : en:第 11 章
  115. 01:05:21.167                             : en:第 12 章
  116. 01:09:32.043                             : en:第 13 章
  117. 01:17:51.083                             : en:第 14 章
  118. 01:23:13.197                             : en:第 15 章
  119. 01:28:40.065                             : en:第 16 章
  120. 01:35:44.989                             : en:第 17 章
  121. 01:41:17.655                             : en:第 18 章
  122. 01:47:35.824                             : en:第 19 章
  123. 01:55:02.020                             : en:第 20 章
复制代码

















保举请利用qBittorrent,utorrent,transmission等标准BT软件下载!以获得最快速度。奉求保种!





回复

使用道具 举报

懒得打字嘛,点击右侧快捷回复 【右侧内容,后台自定义】
您需要登录后才可以回帖 登录 | 立即加入

本版积分规则

Archiver|小黑屋| 蓝光电影网 |网站地图

Copyright © 2021 Comsenz Inc. Powered by 蓝光电影网

蓝光电影网

本站内容由用户自主分享和转载自互联网,转载目的在于传递更多信息,并不代表本网赞同其观点和对其真实性负责。

如有侵权、违反国家法律政策行为,请联系我们,我们会第一时间及时清除和处理!

举报反馈邮箱:[email protected]

快速回复 返回顶部 返回列表