找回密码

蓝光电影网

查看: 43|回复: 0

[科幻] 测试 Chariot.2022.720p.BluRay.x264-UNVEiL 2.40GB

[复制链接]
蓝光币
886
发表于 2022-7-29 08:31:48 | 显示全部楼层 |阅读模式


◎标  题 测试
◎译  名 循环测试
◎片  名 Chariot
◎年  代 2022
◎产  地 美国
◎类  别 科幻
◎语  言 英语
◎上映日期 2022-04-15(美国)
◎IMDb评分 3.5/10 (280人评价)
◎IMDb链接 https://www.imdb.com/title/tt13942896/
◎豆瓣链接 https://movie.douban.com/subject/35765390/
◎片  长 90分钟
◎导  演 亚当·西加尔 Adam Sigal
◎编  剧 亚当·西加尔 Adam Sigal
◎演  员 丝柯·泰勒-考普顿 Scout Taylor-Compton
       罗莎·萨拉查 Rosa Salazar
       约翰·马尔科维奇 John Malkovich
       夏恩·韦斯特 Shane West
       托马斯·曼 Thomas Mann
       卡桑德拉·加瓦 Cassandra Gava
       卡罗·安妮·瓦特斯 Carol Anne Watts
       克里斯‧穆利纳克斯 Chris Mullinax
       Rachael Edlow Rachael Edlow
◎简  介

  'The Chariot' tells the story of a corporation and doctor (John Malkovich) that oversees the process of reincarnation, and a young man (Thomas Mann) who becomes a glitch in the system when he encounters a woman (Rosa Salazar) he loved in a previous life.
  1. Video
  2. ID                                       : 1
  3. Format                                   : AVC
  4. Format/Info                              : Advanced Video Codec
  5. Format profile                           : [email protected]
  6. Format settings                          : CABAC / 8 Ref Frames
  7. Format settings, CABAC                   : Yes
  8. Format settings, Reference frames        : 8 frames
  9. Codec ID                                 : V_MPEG4/ISO/AVC
  10. Duration                                 : 1 h 34 min
  11. Bit rate                                 : 2 995 kb/s
  12. Width                                    : 1 280 pixels
  13. Height                                   : 536 pixels
  14. Display aspect ratio                     : 2.40:1
  15. Frame rate mode                          : Constant
  16. Frame rate                               : 23.976 (24000/1001/189150) FPS
  17. Color space                              : YUV
  18. Chroma subsampling                       : 4:2:0
  19. Bit depth                                : 8 bits
  20. Scan type                                : Progressive
  21. Bits/(Pixel*Frame)                       : 0.182
  22. Stream size                              : 1.97 GiB (82%)
  23. Writing library                          : x264 core 164 r3095 baee400
  24. Encoding settings                        : cabac=1 / ref=8 / deblock=1:-3:-3 / analyse=0x3:0x133 / me=umh / subme=9 / psy=1 / psy_rd=1.00:0.00 / mixed_ref=1 / me_range=16 / chroma_me=1 / trellis=2 / 8x8dct=1 / cqm=0 / deadzone=21,11 / fast_pskip=0 / chroma_qp_offset=-2 / threads=17 / lookahead_threads=1 / sliced_threads=0 / nr=0 / decimate=1 / interlaced=0 / bluray_compat=0 / constrained_intra=0 / bframes=3 / b_pyramid=2 / b_adapt=2 / b_bias=0 / direct=3 / weightb=1 / open_gop=0 / weightp=2 / keyint=250 / keyint_min=23 / scenecut=40 / intra_refresh=0 / rc_lookahead=60 / rc=crf / mbtree=1 / crf=17.0 / qcomp=0.60 / qpmin=0 / qpmax=69 / qpstep=4 / ip_ratio=1.40 / aq=1:1.00
  25. Language                                 : English
  26. Default                                  : Yes
  27. Forced                                   : No

  28. Audio
  29. ID                                       : 2
  30. Format                                   : AC-3
  31. Format/Info                              : Audio Coding 3
  32. Commercial name                          : Dolby Digital
  33. Codec ID                                 : A_AC3
  34. Duration                                 : 1 h 34 min
  35. Bit rate mode                            : Constant
  36. Bit rate                                 : 640 kb/s
  37. Channel(s)                               : 6 channels
  38. Channel layout                           : L R C LFE Ls Rs
  39. Sampling rate                            : 48.0 kHz
  40. Frame rate                               : 31.250 FPS (1536 SPF)
  41. Compression mode                         : Lossy
  42. Stream size                              : 431 MiB (18%)
  43. Language                                 : English
  44. Service kind                             : Complete Main
  45. Default                                  : Yes
  46. Forced                                   : No

  47. Text #1
  48. ID                                       : 3
  49. Format                                   : PGS
  50. Muxing mode                              : zlib
  51. Codec ID                                 : S_HDMV/PGS
  52. Codec ID/Info                            : Picture based subtitle format used on BDs/HD-DVDs
  53. Duration                                 : 1 h 28 min
  54. Bit rate                                 : 31.1 kb/s
  55. Count of elements                        : 1700
  56. Stream size                              : 19.7 MiB (1%)
  57. Language                                 : German
  58. Default                                  : No
  59. Forced                                   : No

  60. Text #2
  61. ID                                       : 4
  62. Format                                   : PGS
  63. Muxing mode                              : zlib
  64. Codec ID                                 : S_HDMV/PGS
  65. Codec ID/Info                            : Picture based subtitle format used on BDs/HD-DVDs
  66. Duration                                 : 1 h 27 min
  67. Bit rate                                 : 370 b/s
  68. Count of elements                        : 24
  69. Stream size                              : 238 KiB (0%)
  70. Language                                 : German
  71. Default                                  : No
  72. Forced                                   : No

  73. Menu
  74. 00:00:00.000                             : en:Chapter 01
  75. 00:06:28.597                             : en:Chapter 02
  76. 00:14:33.164                             : en:Chapter 03
  77. 00:22:47.324                             : en:Chapter 04
  78. 00:32:05.924                             : en:Chapter 05
  79. 00:39:27.949                             : en:Chapter 06
  80. 00:46:05.596                             : en:Chapter 07
  81. 00:54:29.099                             : en:Chapter 08
  82. 01:03:31.558                             : en:Chapter 09
  83. 01:09:28.498                             : en:Chapter 10
  84. 01:19:15.626                             : en:Chapter 11
  85. 01:25:26.747                             : en:Chapter 12
复制代码




                                       
                                       

                                       
                                       
                                       




回复

使用道具 举报

懒得打字嘛,点击右侧快捷回复 【右侧内容,后台自定义】
您需要登录后才可以回帖 登录 | 立即加入

本版积分规则

Archiver|小黑屋| 蓝光电影网 |网站地图

Copyright © 2021 Comsenz Inc. Powered by 蓝光电影网

蓝光电影网

本站内容由用户自主分享和转载自互联网,转载目的在于传递更多信息,并不代表本网赞同其观点和对其真实性负责。

如有侵权、违反国家法律政策行为,请联系我们,我们会第一时间及时清除和处理!

举报反馈邮箱:[email protected]

快速回复 返回顶部 返回列表