找回密码

蓝光电影网

查看: 79|回复: 1

[喜剧] 恐怖肉饼 Auntie.Lees.Meat.Pies.1992.PROPER.1080p.BluRay.x264-YAMG 15.35GB

[复制链接]
蓝光币
886
发表于 2022-7-29 08:34:53 | 显示全部楼层 |阅读模式


◎标  题 可骇肉饼
◎片  名 Auntie Lee's Meat Pies
◎年  代 1992
◎产  地 美国
◎类  别 笑剧 / 可骇
◎语  言 英语
◎上映日期 1992
◎IMDb评分 4.8/10 (527人评价)
◎IMDb链接 https://www.imdb.com/title/tt0106323/
◎豆瓣链接 https://movie.douban.com/subject/5112562/
◎片  长 100分钟
◎演  员 凯伦·布莱克 Karen Black
       森田则之 Pat Morita
       琵雅·雷耶斯 Pía Reyes
       Pat Paulsen Pat Paulsen
       Werner Pochath Werner Pochath
       David Parry David Parry
       莱克斯·朗 Lex Lang
       格兰特·克雷默 Grant Cramer
       迈克尔·贝里曼 Michael Berryman
       Louie Bonanno Louie Bonanno
       艾娃·法比安 Ava Fabian
       特里·魏格尔 Teri Weigel
       佩特拉·维凯克 Petra Verkaik
       斯蒂芬·卡德罗斯 Stephen Quadros
       亨兹·豪尔 Huntz Hall
       N. Kristine Chadwick N. Kristine Chadwick
       Marina Torpin Marina Torpin
       Jerry Macaluso Jerry Macaluso
  1. Video
  2. ID                                       : 1
  3. Format                                   : AVC
  4. Format/Info                              : Advanced Video Codec
  5. Format profile                           : [email protected]
  6. Format settings                          : CABAC / 4 Ref Frames
  7. Format settings, CABAC                   : Yes
  8. Format settings, Reference frames        : 4 frames
  9. Codec ID                                 : V_MPEG4/ISO/AVC
  10. Duration                                 : 1 h 40 min
  11. Bit rate                                 : 20.3 Mb/s
  12. Width                                    : 1 920 pixels
  13. Height                                   : 1 036 pixels
  14. Display aspect ratio                     : 1.85:1
  15. Frame rate mode                          : Constant
  16. Frame rate                               : 23.976 (24000/1001/189150) FPS
  17. Color space                              : YUV
  18. Chroma subsampling                       : 4:2:0
  19. Bit depth                                : 8 bits
  20. Scan type                                : Progressive
  21. Bits/(Pixel*Frame)                       : 0.426
  22. Stream size                              : 14.3 GiB (93%)
  23. Writing library                          : x264 core 164 r3092 35fe20d
  24. Encoding settings                        : cabac=1 / ref=4 / deblock=1:-3:-3 / analyse=0x3:0x133 / me=umh / subme=10 / psy=1 / psy_rd=1.00:0.00 / mixed_ref=1 / me_range=32 / chroma_me=1 / trellis=2 / 8x8dct=1 / cqm=0 / deadzone=21,11 / fast_pskip=0 / chroma_qp_offset=-2 / threads=24 / lookahead_threads=4 / sliced_threads=0 / nr=0 / decimate=0 / interlaced=0 / bluray_compat=0 / constrained_intra=0 / bframes=8 / b_pyramid=2 / b_adapt=2 / b_bias=0 / direct=3 / weightb=1 / open_gop=0 / weightp=2 / keyint=250 / keyint_min=23 / scenecut=40 / intra_refresh=0 / rc=crf / mbtree=0 / crf=20.0 / qcomp=0.60 / qpmin=0 / qpmax=69 / qpstep=4 / ip_ratio=1.40 / pb_ratio=1.30 / aq=3:0.60
  25. Language                                 : English
  26. Default                                  : Yes
  27. Forced                                   : No
  28. Color range                              : Limited
  29. Matrix coefficients                      : BT.709

  30. Audio
  31. ID                                       : 2
  32. Format                                   : FLAC
  33. Format/Info                              : Free Lossless Audio Codec
  34. Codec ID                                 : A_FLAC
  35. Duration                                 : 1 h 40 min
  36. Bit rate mode                            : Variable
  37. Bit rate                                 : 1 553 kb/s
  38. Channel(s)                               : 2 channels
  39. Channel layout                           : L R
  40. Sampling rate                            : 48.0 kHz
  41. Frame rate                               : 11.719 FPS (4096 SPF)
  42. Bit depth                                : 24 bits
  43. Compression mode                         : Lossless
  44. Stream size                              : 1.09 GiB (7%)
  45. Title                                    : English
  46. Writing library                          : libFLAC 1.3.3 (UTC 2019-08-04)
  47. Language                                 : English
  48. Default                                  : Yes
  49. Forced                                   : No

  50. Text #1
  51. ID                                       : 3
  52. Format                                   : UTF-8
  53. Codec ID                                 : S_TEXT/UTF8
  54. Codec ID/Info                            : UTF-8 Plain Text
  55. Duration                                 : 1 h 37 min
  56. Bit rate                                 : 50 b/s
  57. Count of elements                        : 1244
  58. Stream size                              : 36.3 KiB (0%)
  59. Title                                    : English
  60. Language                                 : English
  61. Default                                  : No
  62. Forced                                   : No

  63. Text #2
  64. ID                                       : 4
  65. Format                                   : UTF-8
  66. Codec ID                                 : S_TEXT/UTF8
  67. Codec ID/Info                            : UTF-8 Plain Text
  68. Duration                                 : 1 h 40 min
  69. Bit rate                                 : 60 b/s
  70. Count of elements                        : 1647
  71. Stream size                              : 44.1 KiB (0%)
  72. Title                                    : English SDH
  73. Language                                 : English
  74. Default                                  : No
  75. Forced                                   : No

  76. Text #3
  77. ID                                       : 5
  78. Format                                   : PGS
  79. Muxing mode                              : zlib
  80. Codec ID                                 : S_HDMV/PGS
  81. Codec ID/Info                            : Picture based subtitle format used on BDs/HD-DVDs
  82. Duration                                 : 1 h 40 min
  83. Bit rate                                 : 26.2 kb/s
  84. Count of elements                        : 3295
  85. Stream size                              : 18.8 MiB (0%)
  86. Title                                    : English SDH PGS
  87. Language                                 : English
  88. Default                                  : No
  89. Forced                                   : No

  90. Menu
  91. 00:00:00.000                             : en:Chapter 01
  92. 00:20:51.250                             : en:Chapter 02
  93. 00:40:47.445                             : en:Chapter 03
  94. 01:00:30.627                             : en:Chapter 04
  95. 01:20:56.852                             : en:Chapter 05
复制代码






                                       
                                       

                                       
                                       
                                       




回复

使用道具 举报

蓝光币
411
发表于 2022-7-29 22:06:29 | 显示全部楼层
楼主发贴辛苦了,谢谢楼主分享!我觉得蓝光电影网是注册对了!
回复 支持 反对

使用道具 举报

懒得打字嘛,点击右侧快捷回复 【右侧内容,后台自定义】
您需要登录后才可以回帖 登录 | 立即加入

本版积分规则

Archiver|小黑屋| 蓝光电影网 |网站地图

Copyright © 2021 Comsenz Inc. Powered by 蓝光电影网

蓝光电影网

本站内容由用户自主分享和转载自互联网,转载目的在于传递更多信息,并不代表本网赞同其观点和对其真实性负责。

如有侵权、违反国家法律政策行为,请联系我们,我们会第一时间及时清除和处理!

举报反馈邮箱:[email protected]

快速回复 返回顶部 返回列表