找回密码

蓝光电影网

查看: 35|回复: 3

[剧情] 请告诉我去车站的路 Show.Me.the.Way.to.the.Station.2019.720p.BluRay.x264-YAMG 2.59GB

[复制链接]
蓝光币
886
发表于 2022-7-29 13:26:26 | 显示全部楼层 |阅读模式


◎标  题 请告诉我去车站的路
◎译  名 奇迹车站(港) / 小路与我的奥秘驿站(台) / Show Me the Way to the Station
◎片  名 駅までの道をおしえて
◎年  代 2019
◎产  地 日本
◎类  别 剧情 / 儿童
◎语  言 日语
◎上映日期 2019-10-18(日本)
◎IMDb评分 6.6/10 (25人评价)
◎IMDb链接 https://www.imdb.com/title/tt14342928/
◎豆瓣链接 https://movie.douban.com/subject/27008397/
◎片  长 125分钟
◎导  演 桥本直树 Mamoru Hashimoto
◎编  剧 桥本直树 Mamoru Hashimoto
◎演  员 新津知世 Chise Niitsu
       有村架纯 Kasumi Arimura
       坂井真纪 Maki Sakai
       泷藤贤一 Kenichi Takito
       羽田美智子 Michiko Hada
       槙田雄司 Makita Sports
       佐藤优太郎 Yutaro Sato
       余贵美子 Kimiko Yo
       柄本明 Akira Emoto
       市毛良枝 Yoshie Ichige
       盐见三省 Sansei Shiomi
       笈田吉 Yoshi Oida
       佐藤贡三 Kôzô Satô
◎简  介

  影片改编自直木奖作家伊集院静的同名小说,报告的爱犬死去的八岁女孩沙耶香(新津世知 饰演),和多年前落空幼小儿子的老人布濑(笈田吉饰演)在交换重要家人分开的心情时,逐步暖和心里的损失感的动人故事
  1. Video
  2. ID                                       : 1
  3. Format                                   : AVC
  4. Format/Info                              : Advanced Video Codec
  5. Format profile                           : [email protected]
  6. Format settings                          : CABAC / 12 Ref Frames
  7. Format settings, CABAC                   : Yes
  8. Format settings, Reference frames        : 12 frames
  9. Codec ID                                 : V_MPEG4/ISO/AVC
  10. Duration                                 : 2 h 6 min
  11. Bit rate                                 : 2 291 kb/s
  12. Width                                    : 1 280 pixels
  13. Height                                   : 536 pixels
  14. Display aspect ratio                     : 2.40:1
  15. Frame rate mode                          : Constant
  16. Frame rate                               : 23.976 (24000/1001/189150) FPS
  17. Color space                              : YUV
  18. Chroma subsampling                       : 4:2:0
  19. Bit depth                                : 8 bits
  20. Scan type                                : Progressive
  21. Bits/(Pixel*Frame)                       : 0.139
  22. Stream size                              : 2.02 GiB (78%)
  23. Writing library                          : x264 core 164 r3095 baee400
  24. Encoding settings                        : cabac=1 / ref=12 / deblock=1:-3:-3 / analyse=0x3:0x133 / me=umh / subme=10 / psy=1 / psy_rd=1.00:0.00 / mixed_ref=1 / me_range=32 / chroma_me=1 / trellis=2 / 8x8dct=1 / cqm=0 / deadzone=21,11 / fast_pskip=0 / chroma_qp_offset=-2 / threads=17 / lookahead_threads=2 / sliced_threads=0 / nr=0 / decimate=0 / interlaced=0 / bluray_compat=0 / constrained_intra=0 / bframes=8 / b_pyramid=2 / b_adapt=2 / b_bias=0 / direct=3 / weightb=1 / open_gop=0 / weightp=2 / keyint=250 / keyint_min=23 / scenecut=40 / intra_refresh=0 / rc=crf / mbtree=0 / crf=17.0 / qcomp=0.60 / qpmin=0 / qpmax=69 / qpstep=4 / ip_ratio=1.40 / pb_ratio=1.30 / aq=3:0.60
  25. Language                                 : English
  26. Default                                  : Yes
  27. Forced                                   : No
  28. Color range                              : Limited
  29. Matrix coefficients                      : BT.709

  30. Audio
  31. ID                                       : 2
  32. Format                                   : AC-3
  33. Format/Info                              : Audio Coding 3
  34. Commercial name                          : Dolby Digital
  35. Codec ID                                 : A_AC3
  36. Duration                                 : 2 h 6 min
  37. Bit rate mode                            : Constant
  38. Bit rate                                 : 640 kb/s
  39. Channel(s)                               : 6 channels
  40. Channel layout                           : L R C LFE Ls Rs
  41. Sampling rate                            : 48.0 kHz
  42. Frame rate                               : 31.250 FPS (1536 SPF)
  43. Compression mode                         : Lossy
  44. Stream size                              : 577 MiB (22%)
  45. Title                                    : Japanese
  46. Language                                 : Japanese
  47. Service kind                             : Complete Main
  48. Default                                  : Yes
  49. Forced                                   : No

  50. Text #1
  51. ID                                       : 3
  52. Format                                   : UTF-8
  53. Codec ID                                 : S_TEXT/UTF8
  54. Codec ID/Info                            : UTF-8 Plain Text
  55. Duration                                 : 1 h 59 min
  56. Bit rate                                 : 19 b/s
  57. Count of elements                        : 858
  58. Stream size                              : 17.3 KiB (0%)
  59. Title                                    : English Forced
  60. Language                                 : English
  61. Default                                  : Yes
  62. Forced                                   : Yes

  63. Text #2
  64. ID                                       : 4
  65. Format                                   : PGS
  66. Muxing mode                              : zlib
  67. Codec ID                                 : S_HDMV/PGS
  68. Codec ID/Info                            : Picture based subtitle format used on BDs/HD-DVDs
  69. Duration                                 : 2 h 5 min
  70. Bit rate                                 : 23.6 kb/s
  71. Count of elements                        : 2572
  72. Stream size                              : 21.2 MiB (1%)
  73. Title                                    : Japanese PGS
  74. Language                                 : Japanese
  75. Default                                  : No
  76. Forced                                   : No

  77. Menu
  78. 00:00:00.000                             : :Chapter 01
  79. 00:08:41.938                             : :Chapter 02
  80. 00:17:37.181                             : :Chapter 03
  81. 00:27:20.848                             : :Chapter 04
  82. 00:36:08.583                             : :Chapter 05
  83. 00:49:08.112                             : :Chapter 06
  84. 01:01:23.430                             : :Chapter 07
  85. 01:24:21.139                             : :Chapter 08
  86. 01:40:23.184                             : :Chapter 09
  87. 01:49:08.709                             : :Chapter 10
复制代码





                                       
                                       

                                       
                                       
                                       




回复

使用道具 举报

蓝光币
46
发表于 2022-7-29 16:13:40 | 显示全部楼层

既然你诚信诚意的推荐了,那我就勉为其难的看看吧!蓝光电影网不走平凡路。
回复 支持 反对

使用道具 举报

蓝光币
126
发表于 2022-7-29 17:19:32 | 显示全部楼层
楼主发贴辛苦了,谢谢楼主分享!我觉得蓝光电影网是注册对了!
回复 支持 反对

使用道具 举报

蓝光币
40
发表于 2022-7-29 23:57:48 | 显示全部楼层

这个帖子不回对不起自己!我想我是一天也不能离开蓝光电影网。
回复 支持 反对

使用道具 举报

懒得打字嘛,点击右侧快捷回复 【右侧内容,后台自定义】
您需要登录后才可以回帖 登录 | 立即加入

本版积分规则

Archiver|小黑屋| 蓝光电影网 |网站地图

Copyright © 2021 Comsenz Inc. Powered by 蓝光电影网

蓝光电影网

本站内容由用户自主分享和转载自互联网,转载目的在于传递更多信息,并不代表本网赞同其观点和对其真实性负责。

如有侵权、违反国家法律政策行为,请联系我们,我们会第一时间及时清除和处理!

举报反馈邮箱:[email protected]

快速回复 返回顶部 返回列表