找回密码

蓝光电影网

查看: 150|回复: 1

[2160p] 暗礁狂鲨 The.Reef.Stalked.2022.2160p.WEB-DL.x265.10bit.SDR.DD5.1-NOGRP 7.73GB

[复制链接]
蓝光币
1020
发表于 2022-7-29 13:37:46 | 显示全部楼层 |阅读模式


◎标  题 暗礁狂鲨
◎片  名 The Reef: Stalked
◎年  代 2021
◎产  地 澳大利亚
◎类  别 惊悚
◎语  言 英语
◎IMDb评分 5.3/10 (376人评价)
◎IMDb链接 https://www.imdb.com/title/tt12735282/
◎豆瓣链接 https://movie.douban.com/subject/35624810/
◎导  演 安德鲁·陶克吉 Andrew Traucki
◎编  剧 安德鲁·陶克吉 Andrew Traucki
◎演  员 特瑞沙莲 teressa liane
       Kate Lister Kate Lister
◎简  介

  After her sister's murder, Nic, her younger sister and two friends seek solace through a Pacific island kayaking adventure. Hours into the trip the women are stalked by a shark and must band together, face their fears and save each other.
  1. Video
  2. ID                                       : 1
  3. Format                                   : HEVC
  4. Format/Info                              : High Efficiency Video Coding
  5. Format profile                           : Main [email protected]@High
  6. Codec ID                                 : V_MPEGH/ISO/HEVC
  7. Duration                                 : 1 h 32 min
  8. Bit rate                                 : 11.6 Mb/s
  9. Width                                    : 3 836 pixels
  10. Height                                   : 1 600 pixels
  11. Display aspect ratio                     : 2.40:1
  12. Original display aspect ratio            : 2.40:1
  13. Frame rate mode                          : Constant
  14. Frame rate                               : 23.976 FPS
  15. Color space                              : YUV
  16. Chroma subsampling                       : 4:2:0
  17. Bit depth                                : 10 bits
  18. Bits/(Pixel*Frame)                       : 0.079
  19. Stream size                              : 7.48 GiB (97%)
  20. Default                                  : Yes
  21. Forced                                   : No
  22. Color range                              : Limited
  23. Color primaries                          : BT.709
  24. Transfer characteristics                 : BT.709
  25. Matrix coefficients                      : BT.709

  26. Audio
  27. ID                                       : 2
  28. Format                                   : AC-3
  29. Format/Info                              : Audio Coding 3
  30. Commercial name                          : Dolby Digital
  31. Codec ID                                 : A_AC3
  32. Duration                                 : 1 h 32 min
  33. Bit rate mode                            : Constant
  34. Bit rate                                 : 384 kb/s
  35. Channel(s)                               : 6 channels
  36. Channel layout                           : L R C LFE Ls Rs
  37. Sampling rate                            : 48.0 kHz
  38. Frame rate                               : 31.250 FPS (1536 SPF)
  39. Compression mode                         : Lossy
  40. Stream size                              : 254 MiB (3%)
  41. Title                                    : Australian
  42. Language                                 : English
  43. Service kind                             : Complete Main
  44. Default                                  : Yes
  45. Forced                                   : No

  46. Text #1
  47. ID                                       : 3
  48. Format                                   : UTF-8
  49. Codec ID                                 : S_TEXT/UTF8
  50. Codec ID/Info                            : UTF-8 Plain Text
  51. Duration                                 : 1 h 25 min
  52. Bit rate                                 : 26 b/s
  53. Frame rate                               : 0.147 FPS
  54. Count of elements                        : 752
  55. Stream size                              : 16.8 KiB (0%)
  56. Language                                 : English
  57. Default                                  : Yes
  58. Forced                                   : No

  59. Text #2
  60. ID                                       : 4
  61. Format                                   : UTF-8
  62. Codec ID                                 : S_TEXT/UTF8
  63. Codec ID/Info                            : UTF-8 Plain Text
  64. Duration                                 : 1 h 27 min
  65. Bit rate                                 : 40 b/s
  66. Frame rate                               : 0.228 FPS
  67. Count of elements                        : 1189
  68. Stream size                              : 25.8 KiB (0%)
  69. Title                                    : SDH
  70. Language                                 : English
  71. Default                                  : No
  72. Forced                                   : No
复制代码




                                       
                                       

                                       
                                       
                                       




回复

使用道具 举报

蓝光币
114
发表于 2022-7-29 14:20:34 | 显示全部楼层
谢谢分享
回复

使用道具 举报

懒得打字嘛,点击右侧快捷回复 【右侧内容,后台自定义】
您需要登录后才可以回帖 登录 | 立即加入

本版积分规则

Archiver|小黑屋| 蓝光电影网 |网站地图

Copyright © 2021 Comsenz Inc. Powered by 蓝光电影网

蓝光电影网

本站内容由用户自主分享和转载自互联网,转载目的在于传递更多信息,并不代表本网赞同其观点和对其真实性负责。

如有侵权、违反国家法律政策行为,请联系我们,我们会第一时间及时清除和处理!

举报反馈邮箱:[email protected]

快速回复 返回顶部 返回列表