找回密码

蓝光电影网

查看: 179|回复: 1

[2160p] 天堂高速 Paradise.Highway.2022.2160p.WEB-DL.x265.10bit.SDR.DD5.1-CM 9.96GB

[复制链接]
蓝光币
1022
发表于 2022-7-29 13:38:21 | 显示全部楼层 |阅读模式


◎标  题 天堂高速
◎译  名 天堂高速公路 / Leila M.
◎片  名 Paradise Highway
◎年  代 2022
◎产  地 德国 / 美国
◎类  别 惊悚
◎语  言 英语
◎上映日期 2022-07-29(美国)
◎IMDb链接 https://www.imdb.com/title/tt7469828/
◎豆瓣链接 https://movie.douban.com/subject/35511246/
◎片  长 115分钟
◎导  演 Anna Gutto Anna Gutto
◎编  剧 Anna Gutto Anna Gutto
◎演  员 摩根·弗里曼 Morgan Freeman
       朱丽叶·比诺什 Juliette Binoche
       弗兰克·格里罗 Frank Grillo
       卡梅隆·莫纳汉 Cameron Monaghan
       克里丝蒂安·赛德尔 Christiane Seidel
       维罗尼卡·费瑞尔 Veronica Ferres
       杰基·达拉斯 Jackie Dallas
       哈拉·芬利 Hala Finley
       托米·厄尔·詹金斯 Tommie Earl Jenkins
       朱万达斯·坎迪斯 Jwaundace Candece
       贾登·汉密尔顿 Jayden Hamilton
       迪瓦·泰勒 Diva Tyler
       特蕾茜普弗 Tracy Pfau
       吉姆·多尔蒂 Jim Dougherty
        Raymond McAnally
       Judy Dickerson Judy Dickerson
        James Victor Bulian
        Tim Tanner
  1. Video
  2. ID                                       : 1
  3. Format                                   : HEVC
  4. Format/Info                              : High Efficiency Video Coding
  5. Format profile                           : Main [email protected]@High
  6. Codec ID                                 : V_MPEGH/ISO/HEVC
  7. Duration                                 : 1 h 54 min
  8. Bit rate                                 : 12.0 Mb/s
  9. Width                                    : 3 828 pixels
  10. Height                                   : 1 596 pixels
  11. Display aspect ratio                     : 2.40:1
  12. Frame rate mode                          : Constant
  13. Frame rate                               : 23.976 FPS
  14. Color space                              : YUV
  15. Chroma subsampling                       : 4:2:0
  16. Bit depth                                : 10 bits
  17. Bits/(Pixel*Frame)                       : 0.082
  18. Stream size                              : 9.65 GiB (97%)
  19. Language                                 : English
  20. Default                                  : Yes
  21. Forced                                   : No
  22. Color range                              : Limited
  23. Color primaries                          : BT.709
  24. Transfer characteristics                 : BT.709
  25. Matrix coefficients                      : BT.709

  26. Audio
  27. ID                                       : 2
  28. Format                                   : AC-3
  29. Format/Info                              : Audio Coding 3
  30. Commercial name                          : Dolby Digital
  31. Codec ID                                 : A_AC3
  32. Duration                                 : 1 h 54 min
  33. Bit rate mode                            : Constant
  34. Bit rate                                 : 384 kb/s
  35. Channel(s)                               : 6 channels
  36. Channel layout                           : L R C LFE Ls Rs
  37. Sampling rate                            : 48.0 kHz
  38. Frame rate                               : 31.250 FPS (1536 SPF)
  39. Compression mode                         : Lossy
  40. Stream size                              : 315 MiB (3%)
  41. Language                                 : English
  42. Service kind                             : Complete Main
  43. Default                                  : Yes
  44. Forced                                   : No

  45. Text #1
  46. ID                                       : 3
  47. Format                                   : UTF-8
  48. Codec ID                                 : S_TEXT/UTF8
  49. Codec ID/Info                            : UTF-8 Plain Text
  50. Duration                                 : 1 h 52 min
  51. Bit rate                                 : 49 b/s
  52. Frame rate                               : 0.190 FPS
  53. Count of elements                        : 1287
  54. Stream size                              : 40.9 KiB (0%)
  55. Title                                    : SDH
  56. Language                                 : English
  57. Default                                  : No
  58. Forced                                   : No

  59. Text #2
  60. ID                                       : 4
  61. Format                                   : UTF-8
  62. Codec ID                                 : S_TEXT/UTF8
  63. Codec ID/Info                            : UTF-8 Plain Text
  64. Duration                                 : 1 h 48 min
  65. Bit rate                                 : 44 b/s
  66. Frame rate                               : 0.168 FPS
  67. Count of elements                        : 1088
  68. Stream size                              : 35.4 KiB (0%)
  69. Language                                 : English
  70. Default                                  : No
  71. Forced                                   : No

  72. Menu
  73. 00:00:00.000                             : Chapter 01
  74. 00:15:18.376                             : Chapter 02
  75. 00:31:48.241                             : Chapter 03
  76. 00:49:40.438                             : Chapter 04
  77. 01:00:25.375                             : Chapter 05
  78. 01:17:09.004                             : Chapter 06
  79. 01:33:48.920                             : Chapter 07
  80. 01:50:01.518                             : Chapter 08
复制代码





                                       
                                       

                                       
                                       
                                       




回复

使用道具 举报

蓝光币
35
发表于 2022-7-30 00:03:43 | 显示全部楼层

感谢楼主的无私分享!
回复 支持 反对

使用道具 举报

懒得打字嘛,点击右侧快捷回复 【右侧内容,后台自定义】
您需要登录后才可以回帖 登录 | 立即加入

本版积分规则

Archiver|小黑屋| 蓝光电影网 |网站地图

Copyright © 2021 Comsenz Inc. Powered by 蓝光电影网

蓝光电影网

本站内容由用户自主分享和转载自互联网,转载目的在于传递更多信息,并不代表本网赞同其观点和对其真实性负责。

如有侵权、违反国家法律政策行为,请联系我们,我们会第一时间及时清除和处理!

举报反馈邮箱:[email protected]

快速回复 返回顶部 返回列表