找回密码

蓝光电影网

查看: 67|回复: 0

[剧情] 洞 The.Hole.2021.ITALIAN.1080p.WEBRip.AAC2.0.x264-NOGRP 1.72GB

[复制链接]
蓝光币
1020
发表于 2022-7-29 13:52:12 | 显示全部楼层 |阅读模式


◎标  题 洞
◎片  名 Il buco
◎年  代 2021
◎产  地 意大利 / 法国 / 德国
◎类  别 剧情
◎语  言 意大利语
◎上映日期 2021-09-04(威尼斯电影节)
◎IMDb评分 6.8/10 (601人评价)
◎IMDb链接 https://www.imdb.com/title/tt11012320/
◎豆瓣评分 7.6/10 (961人评价)
◎豆瓣链接 https://movie.douban.com/subject/27124451/
◎片  长 93分钟
◎导  演 米开畅基罗·弗兰马汀诺 Michelangelo Frammartino
◎编  剧 米开畅基罗·弗兰马汀诺 Michelangelo Frammartino
◎简  介

  上世纪60年月,经济繁华,意大利富饶的北部正在修建欧洲最高的修建,而在该国的另一端,年轻的洞窟学家在未受破坏的卡拉布里亚要地摸索欧洲最深的洞窟。比富尔托深渊的底部、空中下方700米处,将初次迎来人类造访。四周的村民没有留意到这群探险者,但波利诺高原的老牧羊人却留意到他离群索居的生活起头与这群人的探险交织在一路。
  1. Video
  2. ID                                       : 1
  3. Format                                   : AVC
  4. Format/Info                              : Advanced Video Codec
  5. Format profile                           : [email protected]
  6. Format settings                          : CABAC / 3 Ref Frames
  7. Format settings, CABAC                   : Yes
  8. Format settings, Reference frames        : 3 frames
  9. Codec ID                                 : V_MPEG4/ISO/AVC
  10. Duration                                 : 1 h 33 min
  11. Bit rate mode                            : Variable
  12. Bit rate                                 : 2 454 kb/s
  13. Maximum bit rate                         : 10 000 kb/s
  14. Width                                    : 1 920 pixels
  15. Height                                   : 1 080 pixels
  16. Display aspect ratio                     : 16:9
  17. Frame rate mode                          : Constant
  18. Frame rate                               : 25.000 FPS
  19. Color space                              : YUV
  20. Chroma subsampling                       : 4:2:0
  21. Bit depth                                : 8 bits
  22. Scan type                                : Progressive
  23. Bits/(Pixel*Frame)                       : 0.047
  24. Stream size                              : 1.59 GiB (93%)
  25. Default                                  : Yes
  26. Forced                                   : No
  27. Color range                              : Limited
  28. Color primaries                          : BT.709
  29. Transfer characteristics                 : BT.709
  30. Matrix coefficients                      : BT.709
  31. Audio
  32. ID                                       : 2
  33. Format                                   : AAC LC
  34. Format/Info                              : Advanced Audio Codec Low Complexity
  35. Codec ID                                 : A_AAC-2
  36. Duration                                 : 1 h 33 min
  37. Bit rate                                 : 192 kb/s
  38. Channel(s)                               : 2 channels
  39. Channel layout                           : L R
  40. Sampling rate                            : 48.0 kHz
  41. Frame rate                               : 46.875 FPS (1024 SPF)
  42. Compression mode                         : Lossy
  43. Stream size                              : 126 MiB (7%)
  44. Language                                 : Italian
  45. Default                                  : Yes
  46. Forced                                   : No
  47. Text
  48. ID                                       : 3
  49. Format                                   : UTF-8
  50. Codec ID                                 : S_TEXT/UTF8
  51. Codec ID/Info                            : UTF-8 Plain Text
  52. Duration                                 : 1 h 22 min
  53. Bit rate                                 : 2 b/s
  54. Frame rate                               : 0.009 FPS
  55. Count of elements                        : 44
  56. Stream size                              : 1.73 KiB (0%)
  57. Language                                 : English
  58. Default                                  : Yes
  59. Forced                                   : No
复制代码







                                       
                                       

                                       
                                       
                                       




回复

使用道具 举报

懒得打字嘛,点击右侧快捷回复 【右侧内容,后台自定义】
您需要登录后才可以回帖 登录 | 立即加入

本版积分规则

Archiver|小黑屋| 蓝光电影网 |网站地图

Copyright © 2021 Comsenz Inc. Powered by 蓝光电影网

蓝光电影网

本站内容由用户自主分享和转载自互联网,转载目的在于传递更多信息,并不代表本网赞同其观点和对其真实性负责。

如有侵权、违反国家法律政策行为,请联系我们,我们会第一时间及时清除和处理!

举报反馈邮箱:[email protected]

快速回复 返回顶部 返回列表