找回密码

蓝光电影网

查看: 23|回复: 0

[其他] 拿坡里少年自拍日记 Selfie.2019.ITALIAN.1080p.AMZN.WEBRip.DDP2.0.x264-SbR 7.25GB

[复制链接]
蓝光币
886
发表于 2022-7-29 13:52:09 | 显示全部楼层 |阅读模式


◎标  题 拿坡里少年自拍日志
◎片  名 Selfie
◎年  代 2019
◎产  地 法国 / 意大利
◎类  别 记载片
◎语  言 意大利语
◎上映日期 2019-02-09(柏林国际电影节Panorama Dokumente单元)
◎IMDb评分 7.2/10 (780人评价)
◎IMDb链接 https://www.imdb.com/title/tt9479138/
◎豆瓣评分 7.8/10 (151人评价)
◎豆瓣链接 https://movie.douban.com/subject/30432350/
◎简  介

  《自拍》是16岁的戴维德·比福尔科(DavideBifolco)一案的怪异记录,他在特雷亚诺的那不勒斯(NeapolitanDistrictofTraiano)被一位宪兵射杀。为了领会一个经常被描画成穷户区和“卡莫拉”据点的街区,以及戴维德灭亡的情况,导演Agostino Ferrente寻觅戴维德的朋友,并会面了Pietro和Alessandro。在这部电影的叙言中,有人听到他在摄影机前问,“告诉我你的友谊”,这揭露了他对这个一向合作的纪实小说项目标态度。他让孩子们带上手机和麦克风,把他们的平常生活记录成一部“自拍”电影,不管他们是骑着摩托车,在海滩上,和朋友一路玩,还是在茅厕里。在一个自我戏剧化经常成为产物的时代,这是一种完善的形式。其成果是一幅使人印象深入的拼贴画,不管是视觉上还是在电影的音轨上,都是关于青春期;关于你的布景决议你未来的生活;关...
  1. Video
  2. ID                                       : 1
  3. Format                                   : AVC
  4. Format/Info                              : Advanced Video Codec
  5. Format profile                           : [email protected]
  6. Format settings                          : CABAC / 4 Ref Frames
  7. Format settings, CABAC                   : Yes
  8. Format settings, Reference frames        : 4 frames
  9. Codec ID                                 : V_MPEG4/ISO/AVC
  10. Duration                                 : 1 h 17 min
  11. Bit rate                                 : 13.1 Mb/s
  12. Width                                    : 1 920 pixels
  13. Height                                   : 1 080 pixels
  14. Display aspect ratio                     : 16:9
  15. Frame rate mode                          : Constant
  16. Frame rate                               : 25.000 FPS
  17. Color space                              : YUV
  18. Chroma subsampling                       : 4:2:0
  19. Bit depth                                : 8 bits
  20. Scan type                                : Progressive
  21. Bits/(Pixel*Frame)                       : 0.253
  22. Stream size                              : 7.13 GiB (98%)
  23. Language                                 : Italian
  24. Default                                  : Yes
  25. Forced                                   : No
  26. Color range                              : Limited
  27. Color primaries                          : BT.709
  28. Transfer characteristics                 : BT.709
  29. Matrix coefficients                      : BT.709
  30. Audio
  31. ID                                       : 2
  32. Format                                   : E-AC-3
  33. Format/Info                              : Enhanced AC-3
  34. Commercial name                          : Dolby Digital Plus
  35. Codec ID                                 : A_EAC3
  36. Duration                                 : 1 h 17 min
  37. Bit rate mode                            : Constant
  38. Bit rate                                 : 224 kb/s
  39. Channel(s)                               : 2 channels
  40. Channel layout                           : L R
  41. Sampling rate                            : 48.0 kHz
  42. Frame rate                               : 31.250 FPS (1536 SPF)
  43. Compression mode                         : Lossy
  44. Stream size                              : 125 MiB (2%)
  45. Title                                    : Italian
  46. Language                                 : Italian
  47. Service kind                             : Complete Main
  48. Default                                  : Yes
  49. Forced                                   : No
  50. Text #1
  51. ID                                       : 3
  52. Format                                   : UTF-8
  53. Codec ID                                 : S_TEXT/UTF8
  54. Codec ID/Info                            : UTF-8 Plain Text
  55. Duration                                 : 1 h 17 min
  56. Bit rate                                 : 50 b/s
  57. Frame rate                               : 0.194 FPS
  58. Count of elements                        : 899
  59. Stream size                              : 28.6 KiB (0%)
  60. Title                                    : English
  61. Language                                 : English
  62. Default                                  : Yes
  63. Forced                                   : No
  64. Text #2
  65. ID                                       : 4
  66. Format                                   : UTF-8
  67. Codec ID                                 : S_TEXT/UTF8
  68. Codec ID/Info                            : UTF-8 Plain Text
  69. Duration                                 : 1 h 14 min
  70. Bit rate                                 : 59 b/s
  71. Frame rate                               : 0.205 FPS
  72. Count of elements                        : 914
  73. Stream size                              : 32.5 KiB (0%)
  74. Title                                    : French
  75. Language                                 : French
  76. Default                                  : No
  77. Forced                                   : No
  78. Text #3
  79. ID                                       : 5
  80. Format                                   : UTF-8
  81. Codec ID                                 : S_TEXT/UTF8
  82. Codec ID/Info                            : UTF-8 Plain Text
  83. Duration                                 : 1 h 14 min
  84. Bit rate                                 : 52 b/s
  85. Frame rate                               : 0.195 FPS
  86. Count of elements                        : 877
  87. Stream size                              : 28.9 KiB (0%)
  88. Title                                    : Turkish
  89. Language                                 : Turkish
  90. Default                                  : No
  91. Forced                                   : No
复制代码







                                       
                                       

                                       
                                       
                                       




回复

使用道具 举报

懒得打字嘛,点击右侧快捷回复 【右侧内容,后台自定义】
您需要登录后才可以回帖 登录 | 立即加入

本版积分规则

Archiver|小黑屋| 蓝光电影网 |网站地图

Copyright © 2021 Comsenz Inc. Powered by 蓝光电影网

蓝光电影网

本站内容由用户自主分享和转载自互联网,转载目的在于传递更多信息,并不代表本网赞同其观点和对其真实性负责。

如有侵权、违反国家法律政策行为,请联系我们,我们会第一时间及时清除和处理!

举报反馈邮箱:[email protected]

快速回复 返回顶部 返回列表