找回密码

蓝光电影网

查看: 48|回复: 0

[剧情] 乔治敦 Georgetown.2019.1080p.AMZN.WEBRip.DDP5.1.x264-SiGLA 4.32GB

[复制链接]
蓝光币
1020
发表于 2022-7-29 13:55:20 | 显示全部楼层 |阅读模式


◎标  题 乔治敦
◎译  名 乔治城 / 乔治敦最糟糕的婚礼 / 乔治城最差婚姻 / 乔治城最糟的婚姻 / The Worst Marriage in Georgetown
◎片  名 Georgetown
◎年  代 2019
◎产  地 美国
◎类  别 剧情 / 列传 / 犯罪
◎语  言 英语
◎上映日期 2019-04-27(翠贝卡电影节) / 2021-05-14(美国)
◎IMDb评分 6.1/10 (2584人评价)
◎IMDb链接 https://www.imdb.com/title/tt4669252/
◎豆瓣评分 6.7/10 (170人评价)
◎豆瓣链接 https://movie.douban.com/subject/26384114/
◎片  长 99分钟
◎导  演 克里斯托弗·瓦尔兹 Christoph Waltz
◎编  剧 大卫·奥伯恩 David Auburn
◎演  员 克里斯托弗·瓦尔兹 Christoph Waltz
       安妮特·贝宁 Annette Bening
       科里·霍金斯 Corey Hawkins
       瓦妮莎·雷德格雷夫 Vanessa Redgrave
       诺安·坚金斯 Noam Jenkins
       保利诺·努内斯 Paulino Nunes
       大卫·瑞勒 David Reale
       塞尔吉奥·齐奥 Sergio Di Zio
       罗恩·利 Ron Lea
       凯文·吉宾维尔 Kevin Jubinville
       丹·莱特 Dan Lett
       玛丽·达姆 Marie Dame
       理查德·布莱克本 Richard Blackburn
       迈克尔·塞尔切基 Michael Sercerchi
       劳拉·德卡特莱特 Laura de Carteret
       萨阿德·西迪基 Saad Siddiqui
       Amin Bhatia Amin Bhatia
       亚历山大·克劳泽 Alexander Crowther
       克里斯·莱特富特 Chris Lightfoot
       洛内·巴尔菲 Lorne Balfe
◎简  介

  影片将基于Franklin Foer在《纽约时报》杂志颁发的一篇文章,聚焦一个凑趣权贵的汉子Albrecht Muth(瓦尔茨饰),勾引并成功娶到一位年老很多的富婆Viola Drath(雷德格雷夫饰),两人在1990年成婚,彼时男方26,女方71。Muth经过Drath成功跻身上流社会,而他背后的目标始终隐藏在暗处,直到2011年Drath被发现死在了乔治敦的家里才被推心置腹。Muth在2014年被判一等谋杀罪处以50年的刑期,并没有假释期。
  1. Video
  2. ID                                       : 1
  3. Format                                   : AVC
  4. Format/Info                              : Advanced Video Codec
  5. Format profile                           : [email protected]
  6. Format settings                          : CABAC / 4 Ref Frames
  7. Format settings, CABAC                   : Yes
  8. Format settings, Reference frames        : 4 frames
  9. Codec ID                                 : V_MPEG4/ISO/AVC
  10. Duration                                 : 1 h 39 min
  11. Bit rate mode                            : Constant
  12. Bit rate                                 : 5 587 kb/s
  13. Nominal bit rate                         : 10 000 kb/s
  14. Width                                    : 1 920 pixels
  15. Height                                   : 816 pixels
  16. Display aspect ratio                     : 2.35:1
  17. Frame rate mode                          : Constant
  18. Frame rate                               : 23.976 (24000/1001/189150) FPS
  19. Color space                              : YUV
  20. Chroma subsampling                       : 4:2:0
  21. Bit depth                                : 8 bits
  22. Scan type                                : Progressive
  23. Bits/(Pixel*Frame)                       : 0.149
  24. Stream size                              : 3.87 GiB (90%)
  25. Default                                  : Yes
  26. Forced                                   : No
  27. Color range                              : Limited
  28. Color primaries                          : BT.709
  29. Transfer characteristics                 : BT.709
  30. Matrix coefficients                      : BT.709
  31. Audio
  32. ID                                       : 2
  33. Format                                   : E-AC-3
  34. Format/Info                              : Enhanced AC-3
  35. Commercial name                          : Dolby Digital Plus
  36. Codec ID                                 : A_EAC3
  37. Duration                                 : 1 h 39 min
  38. Bit rate mode                            : Constant
  39. Bit rate                                 : 640 kb/s
  40. Channel(s)                               : 6 channels
  41. Channel layout                           : L R C LFE Ls Rs
  42. Sampling rate                            : 48.0 kHz
  43. Frame rate                               : 31.250 FPS (1536 SPF)
  44. Compression mode                         : Lossy
  45. Stream size                              : 454 MiB (10%)
  46. Title                                    : English
  47. Language                                 : English
  48. Service kind                             : Complete Main
  49. Default                                  : Yes
  50. Forced                                   : No
  51. Text #1
  52. ID                                       : 3
  53. Format                                   : UTF-8
  54. Codec ID                                 : S_TEXT/UTF8
  55. Codec ID/Info                            : UTF-8 Plain Text
  56. Duration                                 : 1 h 32 min
  57. Bit rate                                 : 74 b/s
  58. Frame rate                               : 0.270 FPS
  59. Count of elements                        : 1494
  60. Stream size                              : 50.1 KiB (0%)
  61. Title                                    : English
  62. Language                                 : English
  63. Default                                  : No
  64. Forced                                   : No
  65. Text #2
  66. ID                                       : 4
  67. Format                                   : UTF-8
  68. Codec ID                                 : S_TEXT/UTF8
  69. Codec ID/Info                            : UTF-8 Plain Text
  70. Duration                                 : 1 h 33 min
  71. Bit rate                                 : 78 b/s
  72. Frame rate                               : 0.294 FPS
  73. Count of elements                        : 1646
  74. Stream size                              : 53.5 KiB (0%)
  75. Title                                    : English (SDH)
  76. Language                                 : English
  77. Default                                  : No
  78. Forced                                   : No
  79. Text #3
  80. ID                                       : 5
  81. Format                                   : UTF-8
  82. Codec ID                                 : S_TEXT/UTF8
  83. Codec ID/Info                            : UTF-8 Plain Text
  84. Duration                                 : 1 h 38 min
  85. Bit rate                                 : 61 b/s
  86. Frame rate                               : 0.232 FPS
  87. Count of elements                        : 1365
  88. Stream size                              : 44.0 KiB (0%)
  89. Title                                    : Latin American
  90. Language                                 : Spanish
  91. Default                                  : No
  92. Forced                                   : No
  93. Text #4
  94. ID                                       : 6
  95. Format                                   : UTF-8
  96. Codec ID                                 : S_TEXT/UTF8
  97. Codec ID/Info                            : UTF-8 Plain Text
  98. Duration                                 : 1 h 38 min
  99. Bit rate                                 : 67 b/s
  100. Frame rate                               : 0.232 FPS
  101. Count of elements                        : 1368
  102. Stream size                              : 48.6 KiB (0%)
  103. Title                                    : Brazilian
  104. Language                                 : Portuguese
  105. Default                                  : No
  106. Forced                                   : No
  107. Menu
  108. 00:00:00.000                             : en:Opening Credits
  109. 00:00:59.992                             : en:Scene 2
  110. 00:04:05.992                             : en:Studio Logo
  111. 00:04:12.992                             : en:Scene 4
  112. 00:10:03.992                             : en:Scene 5
  113. 00:19:01.992                             : en:Scene 6
  114. 00:27:27.992                             : en:Scene 7
  115. 00:36:01.992                             : en:Scene 8
  116. 00:44:13.992                             : en:Scene 9
  117. 00:52:57.992                             : en:Scene 10
  118. 01:00:47.992                             : en:Scene 11
  119. 01:09:40.992                             : en:Scene 12
  120. 01:17:18.992                             : en:Scene 13
  121. 01:26:29.992                             : en:Scene 14
  122. 01:35:27.992                             : en:Epilogue
  123. 01:35:35.992                             : en:End Credits
复制代码







                                       
                                       

                                       
                                       
                                       




回复

使用道具 举报

懒得打字嘛,点击右侧快捷回复 【右侧内容,后台自定义】
您需要登录后才可以回帖 登录 | 立即加入

本版积分规则

Archiver|小黑屋| 蓝光电影网 |网站地图

Copyright © 2021 Comsenz Inc. Powered by 蓝光电影网

蓝光电影网

本站内容由用户自主分享和转载自互联网,转载目的在于传递更多信息,并不代表本网赞同其观点和对其真实性负责。

如有侵权、违反国家法律政策行为,请联系我们,我们会第一时间及时清除和处理!

举报反馈邮箱:[email protected]

快速回复 返回顶部 返回列表