找回密码

蓝光电影网

查看: 119|回复: 0

[剧情] 动物 Animals.2021.FRENCH.1080p.WEBRip.AAC2.0.x264-KUCHU 3.79GB

[复制链接]
蓝光币
1022
发表于 2022-7-29 14:01:52 | 显示全部楼层 |阅读模式


◎标  题 动物
◎译  名 Præy
◎片  名 Animals
◎年  代 2020
◎产  地 比利时 / 法国
◎类  别 剧情
◎语  言 法语
◎上映日期 2021-10(根特电影节) / 2021-11(塔林电影节)
◎IMDb评分 7.1/10 (87人评价)
◎IMDb链接 https://www.imdb.com/title/tt10098452/
◎豆瓣链接 https://movie.douban.com/subject/34967496/
◎片  长 91分钟
◎编  剧 Antoine Cuypers Antoine Cuypers
◎演  员 让-皮埃尔·达内 Jean-Pierre Dardenne
       吕克·达内 Luc Dardenne
◎简  介

  本片由比利时导演纳比尔·本·亚迪自编自导,改编自实在事务,报告了一个年轻帅气的深柜同道极端渴望出柜的故事。男配角布拉辛生活在一个看法非常传统的天下里,即使是面临家人,他也没法坦诚自己的性取向。本片以布拉辛母亲的生日集会作为收场,这也将成为布拉辛在家人眼前迈出柜门的重要契机。
  1. Video
  2. ID                                       : 1
  3. Format                                   : AVC
  4. Format/Info                              : Advanced Video Codec
  5. Format profile                           : [email protected]
  6. Format settings                          : CABAC / 4 Ref Frames
  7. Format settings, CABAC                   : Yes
  8. Format settings, Reference frames        : 4 frames
  9. Codec ID                                 : V_MPEG4/ISO/AVC
  10. Duration                                 : 1 h 31 min
  11. Bit rate                                 : 5 598 kb/s
  12. Width                                    : 1 920 pixels
  13. Height                                   : 1 080 pixels
  14. Display aspect ratio                     : 16:9
  15. Frame rate mode                          : Constant
  16. Frame rate                               : 24.000 FPS
  17. Color space                              : YUV
  18. Chroma subsampling                       : 4:2:0
  19. Bit depth                                : 8 bits
  20. Scan type                                : Progressive
  21. Bits/(Pixel*Frame)                       : 0.112
  22. Stream size                              : 3.58 GiB (95%)
  23. Default                                  : Yes
  24. Forced                                   : No
  25. Audio
  26. ID                                       : 2
  27. Format                                   : AAC LC
  28. Format/Info                              : Advanced Audio Codec Low Complexity
  29. Codec ID                                 : A_AAC-2
  30. Duration                                 : 1 h 31 min
  31. Bit rate                                 : 317 kb/s
  32. Channel(s)                               : 2 channels
  33. Channel layout                           : L R
  34. Sampling rate                            : 48.0 kHz
  35. Frame rate                               : 46.875 FPS (1024 SPF)
  36. Compression mode                         : Lossy
  37. Stream size                              : 208 MiB (5%)
  38. Language                                 : French
  39. Default                                  : Yes
  40. Forced                                   : No
  41. Text #1
  42. ID                                       : 3
  43. Format                                   : UTF-8
  44. Codec ID                                 : S_TEXT/UTF8
  45. Codec ID/Info                            : UTF-8 Plain Text
  46. Duration                                 : 1 h 31 min
  47. Bit rate                                 : 42 b/s
  48. Frame rate                               : 0.172 FPS
  49. Count of elements                        : 937
  50. Stream size                              : 28.7 KiB (0%)
  51. Language                                 : Catalan
  52. Default                                  : No
  53. Forced                                   : No
  54. Text #2
  55. ID                                       : 4
  56. Format                                   : UTF-8
  57. Codec ID                                 : S_TEXT/UTF8
  58. Codec ID/Info                            : UTF-8 Plain Text
  59. Duration                                 : 1 h 31 min
  60. Bit rate                                 : 46 b/s
  61. Frame rate                               : 0.172 FPS
  62. Count of elements                        : 937
  63. Stream size                              : 31.2 KiB (0%)
  64. Language                                 : English
  65. Default                                  : Yes
  66. Forced                                   : No
  67. Text #3
  68. ID                                       : 5
  69. Format                                   : UTF-8
  70. Codec ID                                 : S_TEXT/UTF8
  71. Codec ID/Info                            : UTF-8 Plain Text
  72. Duration                                 : 1 h 31 min
  73. Bit rate                                 : 44 b/s
  74. Frame rate                               : 0.171 FPS
  75. Count of elements                        : 935
  76. Stream size                              : 29.6 KiB (0%)
  77. Language                                 : Spanish
  78. Default                                  : No
  79. Forced                                   : No
复制代码






                                       
                                       

                                       
                                       
                                       




回复

使用道具 举报

懒得打字嘛,点击右侧快捷回复 【右侧内容,后台自定义】
您需要登录后才可以回帖 登录 | 立即加入

本版积分规则

Archiver|小黑屋| 蓝光电影网 |网站地图

Copyright © 2021 Comsenz Inc. Powered by 蓝光电影网

蓝光电影网

本站内容由用户自主分享和转载自互联网,转载目的在于传递更多信息,并不代表本网赞同其观点和对其真实性负责。

如有侵权、违反国家法律政策行为,请联系我们,我们会第一时间及时清除和处理!

举报反馈邮箱:[email protected]

快速回复 返回顶部 返回列表