找回密码

蓝光电影网

查看: 30|回复: 0

[2160p] 不好 Not.Okay.2022.2160p.WEB-DL.DD5.1.DV.MP4.x265-DVSUX 12.06GB

[复制链接]
蓝光币
886
发表于 2022-7-29 17:14:19 | 显示全部楼层 |阅读模式


◎标  题 欠好
◎译  名 不OK
◎片  名 Not Okay
◎年  代 2022
◎产  地 美国
◎类  别 剧情 / 笑剧
◎语  言 英语
◎上映日期 2022-07-29(美国收集)
◎IMDb链接 https://www.imdb.com/title/tt14814040/
◎豆瓣链接 https://movie.douban.com/subject/35552062/
◎片  长 100分钟
◎导  演 奎恩·谢法德 Quinn Shephard
◎编  剧 奎恩·谢法德 Quinn Shephard
◎演  员 佐伊·达奇 Zoey Deutch
       迪伦·奥布莱恩 Dylan O'Brien
       艾伯丝·戴维兹 Embeth Davidtz
       布雷南·布朗 Brennan Brown
       卡兰·索尼 Karan Soni
       米娅·伊萨克 Mia Isaac
       莎拉·亚金 Sarah Yarkin
       纳迪娅·亚历山大 Nadia Alexander
       布莱斯·科里根 Blaise Corrigan
       洛根·克劳福德 Logan Crawford
       Kapil Bawa Kapil Bawa
       Kirk White Kirk White
◎简  介

  报告一个误入邪路的年轻女子渴望朋友和名声,她伪装去巴黎观光,以提升自己在交际媒体上的形象。当现实天下忽然发生了一个可怕的事务、成为她设想观光的一部分,她好心的假话成为了道德窘境,赐与她想要的一切关注。
  1. Video
  2. ID                                       : 1
  3. Format                                   : HEVC
  4. Format/Info                              : High Efficiency Video Coding
  5. Format profile                           : Main [email protected]@High
  6. HDR format                               : Dolby Vision, Version 1.0, dvhe.05.06, BL+RPU
  7. Codec ID                                 : dvhe
  8. Codec ID/Info                            : High Efficiency Video Coding with Dolby Vision
  9. Duration                                 : 1 h 42 min
  10. Bit rate                                 : 16.6 Mb/s
  11. Width                                    : 3 840 pixels
  12. Height                                   : 2 160 pixels
  13. Display aspect ratio                     : 16:9
  14. Frame rate mode                          : Constant
  15. Frame rate                               : 24.000 FPS
  16. Color space                              : YUV
  17. Chroma subsampling                       : 4:2:0
  18. Bit depth                                : 10 bits
  19. Bits/(Pixel*Frame)                       : 0.083
  20. Stream size                              : 11.9 GiB (98%)
  21. Default                                  : Yes
  22. Alternate group                          : 1
  23. Encoded date                             : UTC 2022-07-29 08:35:39
  24. Tagged date                              : UTC 2022-07-29 08:38:30
  25. Color range                              : Full
  26. Codec configuration box                  : hvcC+dvcC
  27. Audio
  28. ID                                       : 2
  29. Format                                   : E-AC-3
  30. Format/Info                              : Enhanced AC-3
  31. Commercial name                          : Dolby Digital Plus
  32. Codec ID                                 : ec-3
  33. Duration                                 : 1 h 42 min
  34. Bit rate mode                            : Constant
  35. Bit rate                                 : 256 kb/s
  36. Maximum bit rate                         : 270 kb/s
  37. Channel(s)                               : 6 channels
  38. Channel layout                           : L R C LFE Ls Rs
  39. Sampling rate                            : 48.0 kHz
  40. Frame rate                               : 31.250 FPS (1536 SPF)
  41. Compression mode                         : Lossy
  42. Stream size                              : 188 MiB (2%)
  43. Title                                    : English
  44. Language                                 : English
  45. Service kind                             : Complete Main
  46. Default                                  : Yes
  47. Alternate group                          : 1
  48. Tagged date                              : UTC 2022-07-29 08:38:30
  49. Text #1
  50. ID                                       : 3
  51. Format                                   : Timed Text
  52. Codec ID                                 : tx3g
  53. Duration                                 : 1 h 42 min
  54. Bit rate mode                            : Variable
  55. Bit rate                                 : 94 b/s
  56. Frame rate                               : 0.522 FPS
  57. Stream size                              : 70.1 KiB (0%)
  58. Title                                    : English
  59. Language                                 : English
  60. Forced                                   : No
  61. Encoded date                             : UTC 2022-07-29 08:38:24
  62. Tagged date                              : UTC 2022-07-29 08:38:30
  63. Text #2
  64. ID                                       : 4
  65. Format                                   : Timed Text
  66. Codec ID                                 : tx3g
  67. Duration                                 : 1 h 42 min
  68. Bit rate mode                            : Variable
  69. Bit rate                                 : 68 b/s
  70. Frame rate                               : 0.456 FPS
  71. Stream size                              : 51.5 KiB (0%)
  72. Title                                    : Chinese-Simplified
  73. Language                                 : Chinese
  74. Forced                                   : No
  75. Encoded date                             : UTC 2022-07-29 08:38:24
  76. Tagged date                              : UTC 2022-07-29 08:38:30
  77. Text #3
  78. ID                                       : 5
  79. Format                                   : Timed Text
  80. Codec ID                                 : tx3g
  81. Duration                                 : 1 h 42 min
  82. Bit rate mode                            : Variable
  83. Bit rate                                 : 65 b/s
  84. Frame rate                               : 0.459 FPS
  85. Stream size                              : 49.1 KiB (0%)
  86. Title                                    : Chinese-Traditional
  87. Language                                 : Chinese
  88. Forced                                   : No
  89. Encoded date                             : UTC 2022-07-29 08:38:24
  90. Tagged date                              : UTC 2022-07-29 08:38:30
  91. Text #4
  92. ID                                       : 6
  93. Format                                   : Timed Text
  94. Codec ID                                 : tx3g
  95. Duration                                 : 1 h 42 min
  96. Bit rate mode                            : Variable
  97. Bit rate                                 : 70 b/s
  98. Frame rate                               : 0.434 FPS
  99. Stream size                              : 52.9 KiB (0%)
  100. Title                                    : Czech
  101. Language                                 : Czech
  102. Forced                                   : No
  103. Encoded date                             : UTC 2022-07-29 08:38:25
  104. Tagged date                              : UTC 2022-07-29 08:38:30
  105. Text #5
  106. ID                                       : 7
  107. Format                                   : Timed Text
  108. Codec ID                                 : tx3g
  109. Duration                                 : 1 h 42 min
  110. Bit rate mode                            : Variable
  111. Bit rate                                 : 69 b/s
  112. Frame rate                               : 0.447 FPS
  113. Stream size                              : 51.8 KiB (0%)
  114. Title                                    : Danish
  115. Language                                 : Danish
  116. Forced                                   : No
  117. Encoded date                             : UTC 2022-07-29 08:38:26
  118. Tagged date                              : UTC 2022-07-29 08:38:30
  119. Text #6
  120. ID                                       : 8
  121. Format                                   : Timed Text
  122. Codec ID                                 : tx3g
  123. Duration                                 : 1 h 42 min
  124. Bit rate mode                            : Variable
  125. Bit rate                                 : 58 b/s
  126. Frame rate                               : 0.335 FPS
  127. Stream size                              : 43.8 KiB (0%)
  128. Title                                    : Dutch
  129. Language                                 : Dutch
  130. Forced                                   : No
  131. Encoded date                             : UTC 2022-07-29 08:38:26
  132. Tagged date                              : UTC 2022-07-29 08:38:30
  133. Text #7
  134. ID                                       : 9
  135. Format                                   : Timed Text
  136. Codec ID                                 : tx3g
  137. Duration                                 : 1 h 42 min
  138. Bit rate mode                            : Variable
  139. Bit rate                                 : 72 b/s
  140. Frame rate                               : 0.449 FPS
  141. Stream size                              : 54.2 KiB (0%)
  142. Title                                    : Finnish
  143. Language                                 : Finnish
  144. Forced                                   : No
  145. Encoded date                             : UTC 2022-07-29 08:38:26
  146. Tagged date                              : UTC 2022-07-29 08:38:30
  147. Text #8
  148. ID                                       : 10
  149. Format                                   : Timed Text
  150. Codec ID                                 : tx3g
  151. Duration                                 : 1 h 42 min
  152. Bit rate mode                            : Variable
  153. Bit rate                                 : 76 b/s
  154. Frame rate                               : 0.448 FPS
  155. Stream size                              : 57.2 KiB (0%)
  156. Title                                    : French
  157. Language                                 : French
  158. Forced                                   : No
  159. Encoded date                             : UTC 2022-07-29 08:38:26
  160. Tagged date                              : UTC 2022-07-29 08:38:30
  161. Text #9
  162. ID                                       : 11
  163. Format                                   : Timed Text
  164. Codec ID                                 : tx3g
  165. Duration                                 : 1 h 42 min
  166. Bit rate mode                            : Variable
  167. Bit rate                                 : 72 b/s
  168. Frame rate                               : 0.434 FPS
  169. Stream size                              : 54.2 KiB (0%)
  170. Title                                    : German
  171. Language                                 : German
  172. Forced                                   : No
  173. Encoded date                             : UTC 2022-07-29 08:38:29
  174. Tagged date                              : UTC 2022-07-29 08:38:30
  175. Text #10
  176. ID                                       : 12
  177. Format                                   : Timed Text
  178. Codec ID                                 : tx3g
  179. Duration                                 : 1 h 42 min
  180. Bit rate mode                            : Variable
  181. Bit rate                                 : 112 b/s
  182. Frame rate                               : 0.452 FPS
  183. Stream size                              : 83.9 KiB (0%)
  184. Title                                    : Greek
  185. Language                                 : Greek
  186. Forced                                   : No
  187. Encoded date                             : UTC 2022-07-29 08:38:29
  188. Tagged date                              : UTC 2022-07-29 08:38:30
  189. Text #11
  190. ID                                       : 13
  191. Format                                   : Timed Text
  192. Codec ID                                 : tx3g
  193. Duration                                 : 1 h 42 min
  194. Bit rate mode                            : Variable
  195. Bit rate                                 : 73 b/s
  196. Frame rate                               : 0.443 FPS
  197. Stream size                              : 55.0 KiB (0%)
  198. Title                                    : Hungarian
  199. Language                                 : Hungarian
  200. Forced                                   : No
  201. Encoded date                             : UTC 2022-07-29 08:38:29
  202. Tagged date                              : UTC 2022-07-29 08:38:30
  203. Text #12
  204. ID                                       : 14
  205. Format                                   : Timed Text
  206. Codec ID                                 : tx3g
  207. Duration                                 : 1 h 42 min
  208. Bit rate mode                            : Variable
  209. Bit rate                                 : 64 b/s
  210. Frame rate                               : 0.429 FPS
  211. Stream size                              : 48.0 KiB (0%)
  212. Title                                    : Italian
  213. Language                                 : Italian
  214. Forced                                   : No
  215. Encoded date                             : UTC 2022-07-29 08:38:29
  216. Tagged date                              : UTC 2022-07-29 08:38:30
  217. Text #13
  218. ID                                       : 15
  219. Format                                   : Timed Text
  220. Codec ID                                 : tx3g
  221. Duration                                 : 1 h 42 min
  222. Bit rate mode                            : Variable
  223. Bit rate                                 : 60 b/s
  224. Frame rate                               : 0.448 FPS
  225. Stream size                              : 44.9 KiB (0%)
  226. Title                                    : Japanese
  227. Language                                 : Japanese
  228. Forced                                   : No
  229. Encoded date                             : UTC 2022-07-29 08:38:29
  230. Tagged date                              : UTC 2022-07-29 08:38:30
  231. Text #14
  232. ID                                       : 16
  233. Format                                   : Timed Text
  234. Codec ID                                 : tx3g
  235. Duration                                 : 1 h 42 min
  236. Bit rate mode                            : Variable
  237. Bit rate                                 : 73 b/s
  238. Frame rate                               : 0.460 FPS
  239. Stream size                              : 55.0 KiB (0%)
  240. Title                                    : Korean
  241. Language                                 : Korean
  242. Forced                                   : No
  243. Encoded date                             : UTC 2022-07-29 08:38:29
  244. Tagged date                              : UTC 2022-07-29 08:38:30
  245. Text #15
  246. ID                                       : 17
  247. Format                                   : Timed Text
  248. Codec ID                                 : tx3g
  249. Duration                                 : 1 h 42 min
  250. Bit rate mode                            : Variable
  251. Bit rate                                 : 69 b/s
  252. Frame rate                               : 0.361 FPS
  253. Stream size                              : 51.8 KiB (0%)
  254. Title                                    : Norwegian
  255. Language                                 : Norwegian
  256. Forced                                   : No
  257. Encoded date                             : UTC 2022-07-29 08:38:29
  258. Tagged date                              : UTC 2022-07-29 08:38:30
  259. Text #16
  260. ID                                       : 18
  261. Format                                   : Timed Text
  262. Codec ID                                 : tx3g
  263. Duration                                 : 1 h 42 min
  264. Bit rate mode                            : Variable
  265. Bit rate                                 : 67 b/s
  266. Frame rate                               : 0.436 FPS
  267. Stream size                              : 50.6 KiB (0%)
  268. Title                                    : Polish
  269. Language                                 : Polish
  270. Forced                                   : No
  271. Encoded date                             : UTC 2022-07-29 08:38:30
  272. Tagged date                              : UTC 2022-07-29 08:38:30
  273. Text #17
  274. ID                                       : 19
  275. Format                                   : Timed Text
  276. Codec ID                                 : tx3g
  277. Duration                                 : 1 h 42 min
  278. Bit rate mode                            : Variable
  279. Bit rate                                 : 70 b/s
  280. Frame rate                               : 0.446 FPS
  281. Stream size                              : 53.0 KiB (0%)
  282. Title                                    : Portuguese
  283. Language                                 : Portuguese
  284. Forced                                   : No
  285. Encoded date                             : UTC 2022-07-29 08:38:30
  286. Tagged date                              : UTC 2022-07-29 08:38:30
  287. Text #18
  288. ID                                       : 20
  289. Format                                   : Timed Text
  290. Codec ID                                 : tx3g
  291. Duration                                 : 1 h 42 min
  292. Bit rate mode                            : Variable
  293. Bit rate                                 : 71 b/s
  294. Frame rate                               : 0.452 FPS
  295. Stream size                              : 53.7 KiB (0%)
  296. Title                                    : Portuguese
  297. Language                                 : Portuguese
  298. Forced                                   : No
  299. Encoded date                             : UTC 2022-07-29 08:38:30
  300. Tagged date                              : UTC 2022-07-29 08:38:30
  301. Text #19
  302. ID                                       : 21
  303. Format                                   : Timed Text
  304. Codec ID                                 : tx3g
  305. Duration                                 : 1 h 42 min
  306. Bit rate mode                            : Variable
  307. Bit rate                                 : 71 b/s
  308. Frame rate                               : 0.435 FPS
  309. Stream size                              : 53.4 KiB (0%)
  310. Title                                    : Romanian
  311. Language                                 : Romanian
  312. Forced                                   : No
  313. Encoded date                             : UTC 2022-07-29 08:38:30
  314. Tagged date                              : UTC 2022-07-29 08:38:30
  315. Text #20
  316. ID                                       : 22
  317. Format                                   : Timed Text
  318. Codec ID                                 : tx3g
  319. Duration                                 : 1 h 42 min
  320. Bit rate mode                            : Variable
  321. Bit rate                                 : 74 b/s
  322. Frame rate                               : 0.443 FPS
  323. Stream size                              : 55.3 KiB (0%)
  324. Title                                    : Slovak
  325. Language                                 : Slovak
  326. Forced                                   : No
  327. Encoded date                             : UTC 2022-07-29 08:38:30
  328. Tagged date                              : UTC 2022-07-29 08:38:30
  329. Text #21
  330. ID                                       : 23
  331. Format                                   : Timed Text
  332. Codec ID                                 : tx3g
  333. Duration                                 : 1 h 42 min
  334. Bit rate mode                            : Variable
  335. Bit rate                                 : 72 b/s
  336. Frame rate                               : 0.432 FPS
  337. Stream size                              : 54.5 KiB (0%)
  338. Title                                    : Spanish-EU
  339. Language                                 : Spanish
  340. Forced                                   : No
  341. Encoded date                             : UTC 2022-07-29 08:38:30
  342. Tagged date                              : UTC 2022-07-29 08:38:30
  343. Text #22
  344. ID                                       : 24
  345. Format                                   : Timed Text
  346. Codec ID                                 : tx3g
  347. Duration                                 : 1 h 42 min
  348. Bit rate mode                            : Variable
  349. Bit rate                                 : 73 b/s
  350. Frame rate                               : 0.438 FPS
  351. Stream size                              : 54.9 KiB (0%)
  352. Title                                    : Spanish-EU
  353. Language                                 : Spanish
  354. Forced                                   : No
  355. Encoded date                             : UTC 2022-07-29 08:38:30
  356. Tagged date                              : UTC 2022-07-29 08:38:30
  357. Text #23
  358. ID                                       : 25
  359. Format                                   : Timed Text
  360. Codec ID                                 : tx3g
  361. Duration                                 : 1 h 42 min
  362. Bit rate mode                            : Variable
  363. Bit rate                                 : 70 b/s
  364. Frame rate                               : 0.451 FPS
  365. Stream size                              : 52.5 KiB (0%)
  366. Title                                    : Swedish
  367. Language                                 : Swedish
  368. Forced                                   : No
  369. Encoded date                             : UTC 2022-07-29 08:38:30
  370. Tagged date                              : UTC 2022-07-29 08:38:30
  371. Text #24
  372. ID                                       : 26
  373. Format                                   : Timed Text
  374. Codec ID                                 : tx3g
  375. Duration                                 : 1 h 42 min
  376. Bit rate mode                            : Variable
  377. Bit rate                                 : 78 b/s
  378. Frame rate                               : 0.458 FPS
  379. Stream size                              : 59.0 KiB (0%)
  380. Title                                    : Turkish
  381. Language                                 : Turkish
  382. Forced                                   : No
  383. Encoded date                             : UTC 2022-07-29 08:38:30
  384. Tagged date                              : UTC 2022-07-29 08:38:30
复制代码




                                       
                                       

                                       
                                       
                                       




回复

使用道具 举报

懒得打字嘛,点击右侧快捷回复 【右侧内容,后台自定义】
您需要登录后才可以回帖 登录 | 立即加入

本版积分规则

Archiver|小黑屋| 蓝光电影网 |网站地图

Copyright © 2021 Comsenz Inc. Powered by 蓝光电影网

蓝光电影网

本站内容由用户自主分享和转载自互联网,转载目的在于传递更多信息,并不代表本网赞同其观点和对其真实性负责。

如有侵权、违反国家法律政策行为,请联系我们,我们会第一时间及时清除和处理!

举报反馈邮箱:[email protected]

快速回复 返回顶部 返回列表