找回密码

蓝光电影网

查看: 27|回复: 0

[2160p] 野战排 Platoon.1986.2160p.WEB-DL.x265.10bit.SDR.DTS-HD.MA.5.1-NOGRP 20.17GB

[复制链接]
蓝光币
886
发表于 2022-7-29 17:17:51 | 显示全部楼层 |阅读模式


◎标  题 野战排
◎译  名 杀戮疆场(港) / 进步高棉(台)
◎片  名 Platoon
◎年  代 1986
◎产  地 美国 / 英国
◎类  别 剧情 / 行动 / 战争
◎语  言 英语 / 越南语
◎上映日期 1986-12-19
◎IMDb评分 8.1/10 (397778人评价)
◎IMDb链接 https://www.imdb.com/title/tt0091763/
◎豆瓣评分 8.2/10 (39120人评价)
◎豆瓣链接 https://movie.douban.com/subject/1293396/
◎片  长 120分钟
◎导  演 奥利佛·斯通 Oliver Stone
◎编  剧 奥利佛·斯通 Oliver Stone
◎演  员 威廉·达福 Willem Dafoe
       查理·辛 Charlie Sheen
       汤姆·贝伦杰 Tom Berenger
       凯斯·大卫 Keith David
       凯文·狄龙 Kevin Dillon
       马克·摩斯 Mark Moses
       约翰尼·德普 Johnny Depp
       福里斯特·惠特克 Forest Whitaker
       理查德·埃德森 Richard Edson
       奥利佛·斯通 Oliver Stone
       托尼·托德 Tony Todd
◎标  签 战争 / 越战 / 美国 / 奥利弗·斯通 / 美国电影 / 典范 / 1986 / OliverStone
◎简  介

    泰勒(查理•辛 Charlie Sheen 饰)是越战时代的一位美国大门生,他前往越南火线去服兵役,被分到了一个步卒军队。军队里有两小我一向对他影响颇大——伊莱亚斯(威廉•达福 Willem Dafoe 饰)和巴恩斯(汤姆•贝伦杰 Tom Berenger 饰)。他们两人对战争的看法截然分歧,前者不忍残杀无辜,尔后者却救死扶伤,泰勒心里很是迷惑,到底谁对战争的看法才是正确。                                                                      巴恩斯展开了一场残暴的屠杀,越南整条村子都流血成河。伊莱亚斯力劝好友不要如此残暴,却遭致二人关系的裂缝。巴恩斯更思疑伊莱亚斯向下属打小报告,友谊变成妒恨。因而,在一次森林战争中,他背着一切人,向伊莱亚斯扣下了扳机。                                                                      泰勒却洞察了这一切,他心里终究有了答案。
  1. Video
  2. ID                                       : 1
  3. Format                                   : HEVC
  4. Format/Info                              : High Efficiency Video Coding
  5. Format profile                           : Main [email protected]@High
  6. Codec ID                                 : V_MPEGH/ISO/HEVC
  7. Duration                                 : 1 h 59 min
  8. Bit rate                                 : 20.5 Mb/s
  9. Width                                    : 3 832 pixels
  10. Height                                   : 2 068 pixels
  11. Display aspect ratio                     : 1.85:1
  12. Frame rate mode                          : Constant
  13. Frame rate                               : 23.976 FPS
  14. Color space                              : YUV
  15. Chroma subsampling                       : 4:2:0
  16. Bit depth                                : 10 bits
  17. Bits/(Pixel*Frame)                       : 0.108
  18. Stream size                              : 17.2 GiB (85%)
  19. Default                                  : Yes
  20. Forced                                   : No
  21. Color range                              : Limited
  22. Color primaries                          : BT.709
  23. Transfer characteristics                 : BT.709
  24. Matrix coefficients                      : BT.709
  25. Audio #1
  26. ID                                       : 2
  27. Format                                   : DTS XLL
  28. Format/Info                              : Digital Theater Systems
  29. Commercial name                          : DTS-HD Master Audio
  30. Codec ID                                 : A_DTS
  31. Duration                                 : 1 h 59 min
  32. Bit rate mode                            : Variable
  33. Bit rate                                 : 2 571 kb/s
  34. Channel(s)                               : 6 channels
  35. Channel layout                           : C L R Ls Rs LFE
  36. Sampling rate                            : 48.0 kHz
  37. Frame rate                               : 93.750 FPS (512 SPF)
  38. Bit depth                                : 24 bits
  39. Compression mode                         : Lossless
  40. Stream size                              : 2.15 GiB (11%)
  41. Title                                    : DTS-HD MA 5.1
  42. Language                                 : English
  43. Default                                  : Yes
  44. Forced                                   : No
  45. Audio #2
  46. ID                                       : 3
  47. Format                                   : AC-3
  48. Format/Info                              : Audio Coding 3
  49. Commercial name                          : Dolby Digital
  50. Codec ID                                 : A_AC3
  51. Duration                                 : 1 h 59 min
  52. Bit rate mode                            : Constant
  53. Bit rate                                 : 384 kb/s
  54. Channel(s)                               : 6 channels
  55. Channel layout                           : L R C LFE Ls Rs
  56. Sampling rate                            : 48.0 kHz
  57. Frame rate                               : 31.250 FPS (1536 SPF)
  58. Compression mode                         : Lossy
  59. Stream size                              : 329 MiB (2%)
  60. Language                                 : English
  61. Service kind                             : Complete Main
  62. Default                                  : No
  63. Forced                                   : No
  64. Audio #3
  65. ID                                       : 4
  66. Format                                   : E-AC-3
  67. Format/Info                              : Enhanced AC-3
  68. Commercial name                          : Dolby Digital Plus
  69. Codec ID                                 : A_EAC3
  70. Duration                                 : 1 h 59 min
  71. Bit rate mode                            : Constant
  72. Bit rate                                 : 640 kb/s
  73. Channel(s)                               : 6 channels
  74. Channel layout                           : L R C LFE Ls Rs
  75. Sampling rate                            : 48.0 kHz
  76. Frame rate                               : 31.250 FPS (1536 SPF)
  77. Compression mode                         : Lossy
  78. Stream size                              : 549 MiB (3%)
  79. Title                                    : DDP 5.1
  80. Language                                 : English
  81. Service kind                             : Complete Main
  82. Default                                  : No
  83. Forced                                   : No
  84. Text #1
  85. ID                                       : 5
  86. Format                                   : UTF-8
  87. Codec ID                                 : S_TEXT/UTF8
  88. Codec ID/Info                            : UTF-8 Plain Text
  89. Duration                                 : 1 h 55 min
  90. Bit rate                                 : 54 b/s
  91. Frame rate                               : 0.182 FPS
  92. Count of elements                        : 1259
  93. Stream size                              : 45.7 KiB (0%)
  94. Title                                    : English
  95. Language                                 : English
  96. Default                                  : Yes
  97. Forced                                   : No
  98. Text #2
  99. ID                                       : 6
  100. Format                                   : UTF-8
  101. Codec ID                                 : S_TEXT/UTF8
  102. Codec ID/Info                            : UTF-8 Plain Text
  103. Duration                                 : 1 h 54 min
  104. Bit rate                                 : 62 b/s
  105. Frame rate                               : 0.237 FPS
  106. Count of elements                        : 1620
  107. Stream size                              : 52.0 KiB (0%)
  108. Title                                    : English CC
  109. Language                                 : English
  110. Default                                  : No
  111. Forced                                   : No
  112. Text #3
  113. ID                                       : 7
  114. Format                                   : UTF-8
  115. Codec ID                                 : S_TEXT/UTF8
  116. Codec ID/Info                            : UTF-8 Plain Text
  117. Duration                                 : 1 h 55 min
  118. Bit rate                                 : 33 b/s
  119. Frame rate                               : 0.157 FPS
  120. Count of elements                        : 1080
  121. Stream size                              : 28.2 KiB (0%)
  122. Title                                    : Chinese Mandarin Traditional
  123. Language                                 : Chinese
  124. Default                                  : No
  125. Forced                                   : No
  126. Text #4
  127. ID                                       : 8
  128. Format                                   : UTF-8
  129. Codec ID                                 : S_TEXT/UTF8
  130. Codec ID/Info                            : UTF-8 Plain Text
  131. Duration                                 : 1 h 55 min
  132. Bit rate                                 : 47 b/s
  133. Frame rate                               : 0.139 FPS
  134. Count of elements                        : 959
  135. Stream size                              : 39.7 KiB (0%)
  136. Title                                    : Czech
  137. Language                                 : Czech
  138. Default                                  : No
  139. Forced                                   : No
  140. Text #5
  141. ID                                       : 9
  142. Format                                   : UTF-8
  143. Codec ID                                 : S_TEXT/UTF8
  144. Codec ID/Info                            : UTF-8 Plain Text
  145. Duration                                 : 1 h 55 min
  146. Bit rate                                 : 51 b/s
  147. Frame rate                               : 0.182 FPS
  148. Count of elements                        : 1256
  149. Stream size                              : 43.4 KiB (0%)
  150. Title                                    : Danish
  151. Language                                 : Danish
  152. Default                                  : No
  153. Forced                                   : No
  154. Text #6
  155. ID                                       : 10
  156. Format                                   : UTF-8
  157. Codec ID                                 : S_TEXT/UTF8
  158. Codec ID/Info                            : UTF-8 Plain Text
  159. Duration                                 : 1 h 55 min
  160. Bit rate                                 : 55 b/s
  161. Frame rate                               : 0.182 FPS
  162. Count of elements                        : 1256
  163. Stream size                              : 47.0 KiB (0%)
  164. Title                                    : German
  165. Language                                 : German
  166. Default                                  : No
  167. Forced                                   : No
  168. Text #7
  169. ID                                       : 11
  170. Format                                   : UTF-8
  171. Codec ID                                 : S_TEXT/UTF8
  172. Codec ID/Info                            : UTF-8 Plain Text
  173. Duration                                 : 1 h 55 min
  174. Bit rate                                 : 52 b/s
  175. Frame rate                               : 0.182 FPS
  176. Count of elements                        : 1256
  177. Stream size                              : 44.2 KiB (0%)
  178. Title                                    : Spanish Latin American
  179. Language                                 : Spanish
  180. Default                                  : No
  181. Forced                                   : No
  182. Text #8
  183. ID                                       : 12
  184. Format                                   : UTF-8
  185. Codec ID                                 : S_TEXT/UTF8
  186. Codec ID/Info                            : UTF-8 Plain Text
  187. Duration                                 : 1 h 55 min
  188. Bit rate                                 : 51 b/s
  189. Frame rate                               : 0.182 FPS
  190. Count of elements                        : 1256
  191. Stream size                              : 43.7 KiB (0%)
  192. Title                                    : Spanish European
  193. Language                                 : Spanish
  194. Default                                  : No
  195. Forced                                   : No
  196. Text #9
  197. ID                                       : 13
  198. Format                                   : UTF-8
  199. Codec ID                                 : S_TEXT/UTF8
  200. Codec ID/Info                            : UTF-8 Plain Text
  201. Duration                                 : 1 h 55 min
  202. Bit rate                                 : 47 b/s
  203. Frame rate                               : 0.182 FPS
  204. Count of elements                        : 1257
  205. Stream size                              : 39.7 KiB (0%)
  206. Title                                    : Finnish
  207. Language                                 : Finnish
  208. Default                                  : No
  209. Forced                                   : No
  210. Text #10
  211. ID                                       : 14
  212. Format                                   : UTF-8
  213. Codec ID                                 : S_TEXT/UTF8
  214. Codec ID/Info                            : UTF-8 Plain Text
  215. Duration                                 : 1 h 58 min
  216. Bit rate                                 : 51 b/s
  217. Frame rate                               : 0.176 FPS
  218. Count of elements                        : 1257
  219. Stream size                              : 44.9 KiB (0%)
  220. Title                                    : French European
  221. Language                                 : French
  222. Default                                  : No
  223. Forced                                   : No
  224. Text #11
  225. ID                                       : 15
  226. Format                                   : UTF-8
  227. Codec ID                                 : S_TEXT/UTF8
  228. Codec ID/Info                            : UTF-8 Plain Text
  229. Duration                                 : 1 h 55 min
  230. Bit rate                                 : 46 b/s
  231. Frame rate                               : 0.139 FPS
  232. Count of elements                        : 960
  233. Stream size                              : 39.1 KiB (0%)
  234. Title                                    : Hungarian
  235. Language                                 : Hungarian
  236. Default                                  : No
  237. Forced                                   : No
  238. Text #12
  239. ID                                       : 16
  240. Format                                   : UTF-8
  241. Codec ID                                 : S_TEXT/UTF8
  242. Codec ID/Info                            : UTF-8 Plain Text
  243. Duration                                 : 1 h 55 min
  244. Bit rate                                 : 50 b/s
  245. Frame rate                               : 0.182 FPS
  246. Count of elements                        : 1256
  247. Stream size                              : 42.9 KiB (0%)
  248. Title                                    : Italian
  249. Language                                 : Italian
  250. Default                                  : No
  251. Forced                                   : No
  252. Text #13
  253. ID                                       : 17
  254. Format                                   : UTF-8
  255. Codec ID                                 : S_TEXT/UTF8
  256. Codec ID/Info                            : UTF-8 Plain Text
  257. Duration                                 : 1 h 55 min
  258. Bit rate                                 : 32 b/s
  259. Frame rate                               : 0.131 FPS
  260. Count of elements                        : 906
  261. Stream size                              : 27.3 KiB (0%)
  262. Title                                    : Japanese
  263. Language                                 : Japanese
  264. Default                                  : No
  265. Forced                                   : No
  266. Text #14
  267. ID                                       : 18
  268. Format                                   : UTF-8
  269. Codec ID                                 : S_TEXT/UTF8
  270. Codec ID/Info                            : UTF-8 Plain Text
  271. Duration                                 : 1 h 55 min
  272. Bit rate                                 : 46 b/s
  273. Frame rate                               : 0.182 FPS
  274. Count of elements                        : 1257
  275. Stream size                              : 39.3 KiB (0%)
  276. Title                                    : Dutch
  277. Language                                 : Dutch
  278. Default                                  : No
  279. Forced                                   : No
  280. Text #15
  281. ID                                       : 19
  282. Format                                   : UTF-8
  283. Codec ID                                 : S_TEXT/UTF8
  284. Codec ID/Info                            : UTF-8 Plain Text
  285. Duration                                 : 1 h 55 min
  286. Bit rate                                 : 50 b/s
  287. Frame rate                               : 0.182 FPS
  288. Count of elements                        : 1257
  289. Stream size                              : 42.4 KiB (0%)
  290. Title                                    : Norwegian
  291. Language                                 : Norwegian
  292. Default                                  : No
  293. Forced                                   : No
  294. Text #16
  295. ID                                       : 20
  296. Format                                   : UTF-8
  297. Codec ID                                 : S_TEXT/UTF8
  298. Codec ID/Info                            : UTF-8 Plain Text
  299. Duration                                 : 1 h 55 min
  300. Bit rate                                 : 47 b/s
  301. Frame rate                               : 0.139 FPS
  302. Count of elements                        : 960
  303. Stream size                              : 39.8 KiB (0%)
  304. Title                                    : Polish
  305. Language                                 : Polish
  306. Default                                  : No
  307. Forced                                   : No
  308. Text #17
  309. ID                                       : 21
  310. Format                                   : UTF-8
  311. Codec ID                                 : S_TEXT/UTF8
  312. Codec ID/Info                            : UTF-8 Plain Text
  313. Duration                                 : 1 h 55 min
  314. Bit rate                                 : 47 b/s
  315. Frame rate                               : 0.158 FPS
  316. Count of elements                        : 1088
  317. Stream size                              : 40.0 KiB (0%)
  318. Title                                    : Portuguese Brazilian
  319. Language                                 : Portuguese
  320. Default                                  : No
  321. Forced                                   : No
  322. Text #18
  323. ID                                       : 22
  324. Format                                   : UTF-8
  325. Codec ID                                 : S_TEXT/UTF8
  326. Codec ID/Info                            : UTF-8 Plain Text
  327. Duration                                 : 1 h 55 min
  328. Bit rate                                 : 48 b/s
  329. Frame rate                               : 0.139 FPS
  330. Count of elements                        : 959
  331. Stream size                              : 41.2 KiB (0%)
  332. Title                                    : Portuguese European
  333. Language                                 : Portuguese
  334. Default                                  : No
  335. Forced                                   : No
  336. Text #19
  337. ID                                       : 23
  338. Format                                   : UTF-8
  339. Codec ID                                 : S_TEXT/UTF8
  340. Codec ID/Info                            : UTF-8 Plain Text
  341. Duration                                 : 1 h 55 min
  342. Bit rate                                 : 46 b/s
  343. Frame rate                               : 0.182 FPS
  344. Count of elements                        : 1256
  345. Stream size                              : 39.2 KiB (0%)
  346. Title                                    : Swedish
  347. Language                                 : Swedish
  348. Default                                  : No
  349. Forced                                   : No
  350. Text #20
  351. ID                                       : 24
  352. Format                                   : UTF-8
  353. Codec ID                                 : S_TEXT/UTF8
  354. Codec ID/Info                            : UTF-8 Plain Text
  355. Duration                                 : 1 h 55 min
  356. Bit rate                                 : 99 b/s
  357. Frame rate                               : 0.157 FPS
  358. Count of elements                        : 1080
  359. Stream size                              : 83.5 KiB (0%)
  360. Title                                    : Thai
  361. Language                                 : Thai
  362. Default                                  : No
  363. Forced                                   : No
  364. Text #21
  365. ID                                       : 25
  366. Format                                   : UTF-8
  367. Codec ID                                 : S_TEXT/UTF8
  368. Codec ID/Info                            : UTF-8 Plain Text
  369. Duration                                 : 1 h 55 min
  370. Bit rate                                 : 47 b/s
  371. Frame rate                               : 0.139 FPS
  372. Count of elements                        : 959
  373. Stream size                              : 40.0 KiB (0%)
  374. Title                                    : Turkish
  375. Language                                 : Turkish
  376. Default                                  : No
  377. Forced                                   : No
  378. Menu
  379. 00:00:00.000                             : en:Chapter 01
  380. 00:15:02.000                             : en:Chapter 02
  381. 00:30:06.000                             : en:Chapter 03
  382. 00:45:16.000                             : en:Chapter 04
  383. 01:01:57.000                             : en:Chapter 05
  384. 01:17:23.000                             : en:Chapter 06
  385. 01:35:15.500                             : en:Chapter 07
  386. 01:45:56.000                             : en:Chapter 08
复制代码




                                       
                                       

                                       
                                       
                                       




回复

使用道具 举报

懒得打字嘛,点击右侧快捷回复 【右侧内容,后台自定义】
您需要登录后才可以回帖 登录 | 立即加入

本版积分规则

Archiver|小黑屋| 蓝光电影网 |网站地图

Copyright © 2021 Comsenz Inc. Powered by 蓝光电影网

蓝光电影网

本站内容由用户自主分享和转载自互联网,转载目的在于传递更多信息,并不代表本网赞同其观点和对其真实性负责。

如有侵权、违反国家法律政策行为,请联系我们,我们会第一时间及时清除和处理!

举报反馈邮箱:[email protected]

快速回复 返回顶部 返回列表