找回密码

蓝光电影网

查看: 20|回复: 0

[2160p] 野战排 Platoon.1986.2160p.WEB-DL.DTS-HD.MA.5.1.DV.MKV.x265-DVSUX 23.47GB

[复制链接]
蓝光币
894
发表于 2022-7-29 17:17:49 | 显示全部楼层 |阅读模式


◎标  题 野战排
◎译  名 杀戮疆场(港) / 进步高棉(台)
◎片  名 Platoon
◎年  代 1986
◎产  地 美国 / 英国
◎类  别 剧情 / 行动 / 战争
◎语  言 英语 / 越南语
◎上映日期 1986-12-19
◎IMDb评分 8.1/10 (397778人评价)
◎IMDb链接 https://www.imdb.com/title/tt0091763/
◎豆瓣评分 8.2/10 (39120人评价)
◎豆瓣链接 https://movie.douban.com/subject/1293396/
◎片  长 120分钟
◎导  演 奥利佛·斯通 Oliver Stone
◎编  剧 奥利佛·斯通 Oliver Stone
◎演  员 威廉·达福 Willem Dafoe
       查理·辛 Charlie Sheen
       汤姆·贝伦杰 Tom Berenger
       凯斯·大卫 Keith David
       凯文·狄龙 Kevin Dillon
       马克·摩斯 Mark Moses
       约翰尼·德普 Johnny Depp
       福里斯特·惠特克 Forest Whitaker
       理查德·埃德森 Richard Edson
       奥利佛·斯通 Oliver Stone
       托尼·托德 Tony Todd
◎标  签 战争 / 越战 / 美国 / 奥利弗·斯通 / 美国电影 / 典范 / 1986 / OliverStone
◎简  介

    泰勒(查理•辛 Charlie Sheen 饰)是越战时代的一位美国大门生,他前往越南火线去服兵役,被分到了一个步卒军队。军队里有两小我一向对他影响颇大——伊莱亚斯(威廉•达福 Willem Dafoe 饰)和巴恩斯(汤姆•贝伦杰 Tom Berenger 饰)。他们两人对战争的看法截然分歧,前者不忍残杀无辜,尔后者却救死扶伤,泰勒心里很是迷惑,到底谁对战争的看法才是正确。                                                                      巴恩斯展开了一场残暴的屠杀,越南整条村子都流血成河。伊莱亚斯力劝好友不要如此残暴,却遭致二人关系的裂缝。巴恩斯更思疑伊莱亚斯向下属打小报告,友谊变成妒恨。因而,在一次森林战争中,他背着一切人,向伊莱亚斯扣下了扳机。                                                                      泰勒却洞察了这一切,他心里终究有了答案。
  1. Video
  2. ID                                       : 1
  3. Format                                   : HEVC
  4. Format/Info                              : High Efficiency Video Coding
  5. Format profile                           : Main [email protected]@High
  6. HDR format                               : Dolby Vision, Version 1.0, dvhe.05.06, BL+RPU
  7. Codec ID                                 : V_MPEGH/ISO/HEVC
  8. Duration                                 : 1 h 59 min
  9. Bit rate                                 : 24.4 Mb/s
  10. Width                                    : 3 832 pixels
  11. Height                                   : 2 068 pixels
  12. Display aspect ratio                     : 1.85:1
  13. Frame rate mode                          : Constant
  14. Frame rate                               : 23.976 (24000/1001/189150) FPS
  15. Color space                              : YUV
  16. Chroma subsampling                       : 4:2:0
  17. Bit depth                                : 10 bits
  18. Bits/(Pixel*Frame)                       : 0.129
  19. Stream size                              : 20.5 GiB (87%)
  20. Default                                  : Yes
  21. Forced                                   : No

  22. Audio #1
  23. ID                                       : 2
  24. Format                                   : DTS XLL
  25. Format/Info                              : Digital Theater Systems
  26. Commercial name                          : DTS-HD Master Audio
  27. Codec ID                                 : A_DTS
  28. Duration                                 : 1 h 59 min
  29. Bit rate mode                            : Variable
  30. Bit rate                                 : 2 571 kb/s
  31. Channel(s)                               : 6 channels
  32. Channel layout                           : C L R Ls Rs LFE
  33. Sampling rate                            : 48.0 kHz
  34. Frame rate                               : 93.750 FPS (512 SPF)
  35. Bit depth                                : 24 bits
  36. Compression mode                         : Lossless
  37. Stream size                              : 2.15 GiB (9%)
  38. Title                                    : DTS-HD MA 5.1
  39. Language                                 : English
  40. Default                                  : Yes
  41. Forced                                   : No

  42. Audio #2
  43. ID                                       : 3
  44. Format                                   : AC-3
  45. Format/Info                              : Audio Coding 3
  46. Commercial name                          : Dolby Digital
  47. Codec ID                                 : A_AC3
  48. Duration                                 : 1 h 59 min
  49. Bit rate mode                            : Constant
  50. Bit rate                                 : 384 kb/s
  51. Channel(s)                               : 6 channels
  52. Channel layout                           : L R C LFE Ls Rs
  53. Sampling rate                            : 48.0 kHz
  54. Frame rate                               : 31.250 FPS (1536 SPF)
  55. Compression mode                         : Lossy
  56. Stream size                              : 329 MiB (1%)
  57. Language                                 : English
  58. Service kind                             : Complete Main
  59. Default                                  : No
  60. Forced                                   : No

  61. Audio #3
  62. ID                                       : 4
  63. Format                                   : E-AC-3
  64. Format/Info                              : Enhanced AC-3
  65. Commercial name                          : Dolby Digital Plus
  66. Codec ID                                 : A_EAC3
  67. Duration                                 : 1 h 59 min
  68. Bit rate mode                            : Constant
  69. Bit rate                                 : 640 kb/s
  70. Channel(s)                               : 6 channels
  71. Channel layout                           : L R C LFE Ls Rs
  72. Sampling rate                            : 48.0 kHz
  73. Frame rate                               : 31.250 FPS (1536 SPF)
  74. Compression mode                         : Lossy
  75. Stream size                              : 549 MiB (2%)
  76. Title                                    : DDP 5.1
  77. Language                                 : English
  78. Service kind                             : Complete Main
  79. Default                                  : No
  80. Forced                                   : No

  81. Text #1
  82. ID                                       : 5
  83. Format                                   : UTF-8
  84. Codec ID                                 : S_TEXT/UTF8
  85. Codec ID/Info                            : UTF-8 Plain Text
  86. Duration                                 : 1 h 55 min
  87. Bit rate                                 : 54 b/s
  88. Frame rate                               : 0.182 FPS
  89. Count of elements                        : 1259
  90. Stream size                              : 45.7 KiB (0%)
  91. Title                                    : English
  92. Language                                 : English
  93. Default                                  : No
  94. Forced                                   : No

  95. Text #2
  96. ID                                       : 6
  97. Format                                   : UTF-8
  98. Codec ID                                 : S_TEXT/UTF8
  99. Codec ID/Info                            : UTF-8 Plain Text
  100. Duration                                 : 1 h 54 min
  101. Bit rate                                 : 62 b/s
  102. Frame rate                               : 0.237 FPS
  103. Count of elements                        : 1620
  104. Stream size                              : 52.0 KiB (0%)
  105. Title                                    : English CC
  106. Language                                 : English
  107. Default                                  : No
  108. Forced                                   : No

  109. Text #3
  110. ID                                       : 7
  111. Format                                   : UTF-8
  112. Codec ID                                 : S_TEXT/UTF8
  113. Codec ID/Info                            : UTF-8 Plain Text
  114. Duration                                 : 1 h 55 min
  115. Bit rate                                 : 33 b/s
  116. Frame rate                               : 0.157 FPS
  117. Count of elements                        : 1080
  118. Stream size                              : 28.2 KiB (0%)
  119. Title                                    : Chinese Mandarin Traditional
  120. Language                                 : Chinese
  121. Default                                  : No
  122. Forced                                   : No

  123. Text #4
  124. ID                                       : 8
  125. Format                                   : UTF-8
  126. Codec ID                                 : S_TEXT/UTF8
  127. Codec ID/Info                            : UTF-8 Plain Text
  128. Duration                                 : 1 h 55 min
  129. Bit rate                                 : 47 b/s
  130. Frame rate                               : 0.139 FPS
  131. Count of elements                        : 959
  132. Stream size                              : 39.7 KiB (0%)
  133. Title                                    : Czech
  134. Language                                 : Czech
  135. Default                                  : No
  136. Forced                                   : No

  137. Text #5
  138. ID                                       : 9
  139. Format                                   : UTF-8
  140. Codec ID                                 : S_TEXT/UTF8
  141. Codec ID/Info                            : UTF-8 Plain Text
  142. Duration                                 : 1 h 55 min
  143. Bit rate                                 : 51 b/s
  144. Frame rate                               : 0.182 FPS
  145. Count of elements                        : 1256
  146. Stream size                              : 43.4 KiB (0%)
  147. Title                                    : Danish
  148. Language                                 : Danish
  149. Default                                  : No
  150. Forced                                   : No

  151. Text #6
  152. ID                                       : 10
  153. Format                                   : UTF-8
  154. Codec ID                                 : S_TEXT/UTF8
  155. Codec ID/Info                            : UTF-8 Plain Text
  156. Duration                                 : 1 h 55 min
  157. Bit rate                                 : 55 b/s
  158. Frame rate                               : 0.182 FPS
  159. Count of elements                        : 1256
  160. Stream size                              : 47.0 KiB (0%)
  161. Title                                    : German
  162. Language                                 : German
  163. Default                                  : No
  164. Forced                                   : No

  165. Text #7
  166. ID                                       : 11
  167. Format                                   : UTF-8
  168. Codec ID                                 : S_TEXT/UTF8
  169. Codec ID/Info                            : UTF-8 Plain Text
  170. Duration                                 : 1 h 55 min
  171. Bit rate                                 : 52 b/s
  172. Frame rate                               : 0.182 FPS
  173. Count of elements                        : 1256
  174. Stream size                              : 44.2 KiB (0%)
  175. Title                                    : Spanish Latin American
  176. Language                                 : Spanish
  177. Default                                  : No
  178. Forced                                   : No

  179. Text #8
  180. ID                                       : 12
  181. Format                                   : UTF-8
  182. Codec ID                                 : S_TEXT/UTF8
  183. Codec ID/Info                            : UTF-8 Plain Text
  184. Duration                                 : 1 h 55 min
  185. Bit rate                                 : 51 b/s
  186. Frame rate                               : 0.182 FPS
  187. Count of elements                        : 1256
  188. Stream size                              : 43.7 KiB (0%)
  189. Title                                    : Spanish European
  190. Language                                 : Spanish
  191. Default                                  : No
  192. Forced                                   : No

  193. Text #9
  194. ID                                       : 13
  195. Format                                   : UTF-8
  196. Codec ID                                 : S_TEXT/UTF8
  197. Codec ID/Info                            : UTF-8 Plain Text
  198. Duration                                 : 1 h 55 min
  199. Bit rate                                 : 47 b/s
  200. Frame rate                               : 0.182 FPS
  201. Count of elements                        : 1257
  202. Stream size                              : 39.7 KiB (0%)
  203. Title                                    : Finnish
  204. Language                                 : Finnish
  205. Default                                  : No
  206. Forced                                   : No

  207. Text #10
  208. ID                                       : 14
  209. Format                                   : UTF-8
  210. Codec ID                                 : S_TEXT/UTF8
  211. Codec ID/Info                            : UTF-8 Plain Text
  212. Duration                                 : 1 h 58 min
  213. Bit rate                                 : 51 b/s
  214. Frame rate                               : 0.176 FPS
  215. Count of elements                        : 1257
  216. Stream size                              : 44.9 KiB (0%)
  217. Title                                    : French European
  218. Language                                 : French
  219. Default                                  : No
  220. Forced                                   : No

  221. Text #11
  222. ID                                       : 15
  223. Format                                   : UTF-8
  224. Codec ID                                 : S_TEXT/UTF8
  225. Codec ID/Info                            : UTF-8 Plain Text
  226. Duration                                 : 1 h 55 min
  227. Bit rate                                 : 46 b/s
  228. Frame rate                               : 0.139 FPS
  229. Count of elements                        : 960
  230. Stream size                              : 39.1 KiB (0%)
  231. Title                                    : Hungarian
  232. Language                                 : Hungarian
  233. Default                                  : No
  234. Forced                                   : No

  235. Text #12
  236. ID                                       : 16
  237. Format                                   : UTF-8
  238. Codec ID                                 : S_TEXT/UTF8
  239. Codec ID/Info                            : UTF-8 Plain Text
  240. Duration                                 : 1 h 55 min
  241. Bit rate                                 : 50 b/s
  242. Frame rate                               : 0.182 FPS
  243. Count of elements                        : 1256
  244. Stream size                              : 42.9 KiB (0%)
  245. Title                                    : Italian
  246. Language                                 : Italian
  247. Default                                  : No
  248. Forced                                   : No

  249. Text #13
  250. ID                                       : 17
  251. Format                                   : UTF-8
  252. Codec ID                                 : S_TEXT/UTF8
  253. Codec ID/Info                            : UTF-8 Plain Text
  254. Duration                                 : 1 h 55 min
  255. Bit rate                                 : 32 b/s
  256. Frame rate                               : 0.131 FPS
  257. Count of elements                        : 906
  258. Stream size                              : 27.3 KiB (0%)
  259. Title                                    : Japanese
  260. Language                                 : Japanese
  261. Default                                  : No
  262. Forced                                   : No

  263. Text #14
  264. ID                                       : 18
  265. Format                                   : UTF-8
  266. Codec ID                                 : S_TEXT/UTF8
  267. Codec ID/Info                            : UTF-8 Plain Text
  268. Duration                                 : 1 h 55 min
  269. Bit rate                                 : 46 b/s
  270. Frame rate                               : 0.182 FPS
  271. Count of elements                        : 1257
  272. Stream size                              : 39.3 KiB (0%)
  273. Title                                    : Dutch
  274. Language                                 : Dutch
  275. Default                                  : No
  276. Forced                                   : No

  277. Text #15
  278. ID                                       : 19
  279. Format                                   : UTF-8
  280. Codec ID                                 : S_TEXT/UTF8
  281. Codec ID/Info                            : UTF-8 Plain Text
  282. Duration                                 : 1 h 55 min
  283. Bit rate                                 : 50 b/s
  284. Frame rate                               : 0.182 FPS
  285. Count of elements                        : 1257
  286. Stream size                              : 42.4 KiB (0%)
  287. Title                                    : Norwegian
  288. Language                                 : Norwegian
  289. Default                                  : No
  290. Forced                                   : No

  291. Text #16
  292. ID                                       : 20
  293. Format                                   : UTF-8
  294. Codec ID                                 : S_TEXT/UTF8
  295. Codec ID/Info                            : UTF-8 Plain Text
  296. Duration                                 : 1 h 55 min
  297. Bit rate                                 : 47 b/s
  298. Frame rate                               : 0.139 FPS
  299. Count of elements                        : 960
  300. Stream size                              : 39.8 KiB (0%)
  301. Title                                    : Polish
  302. Language                                 : Polish
  303. Default                                  : No
  304. Forced                                   : No

  305. Text #17
  306. ID                                       : 21
  307. Format                                   : UTF-8
  308. Codec ID                                 : S_TEXT/UTF8
  309. Codec ID/Info                            : UTF-8 Plain Text
  310. Duration                                 : 1 h 55 min
  311. Bit rate                                 : 47 b/s
  312. Frame rate                               : 0.158 FPS
  313. Count of elements                        : 1088
  314. Stream size                              : 40.0 KiB (0%)
  315. Title                                    : Portuguese Brazilian
  316. Language                                 : Portuguese
  317. Default                                  : No
  318. Forced                                   : No

  319. Text #18
  320. ID                                       : 22
  321. Format                                   : UTF-8
  322. Codec ID                                 : S_TEXT/UTF8
  323. Codec ID/Info                            : UTF-8 Plain Text
  324. Duration                                 : 1 h 55 min
  325. Bit rate                                 : 48 b/s
  326. Frame rate                               : 0.139 FPS
  327. Count of elements                        : 959
  328. Stream size                              : 41.2 KiB (0%)
  329. Title                                    : Portuguese European
  330. Language                                 : Portuguese
  331. Default                                  : No
  332. Forced                                   : No

  333. Text #19
  334. ID                                       : 23
  335. Format                                   : UTF-8
  336. Codec ID                                 : S_TEXT/UTF8
  337. Codec ID/Info                            : UTF-8 Plain Text
  338. Duration                                 : 1 h 55 min
  339. Bit rate                                 : 46 b/s
  340. Frame rate                               : 0.182 FPS
  341. Count of elements                        : 1256
  342. Stream size                              : 39.2 KiB (0%)
  343. Title                                    : Swedish
  344. Language                                 : Swedish
  345. Default                                  : No
  346. Forced                                   : No

  347. Text #20
  348. ID                                       : 24
  349. Format                                   : UTF-8
  350. Codec ID                                 : S_TEXT/UTF8
  351. Codec ID/Info                            : UTF-8 Plain Text
  352. Duration                                 : 1 h 55 min
  353. Bit rate                                 : 99 b/s
  354. Frame rate                               : 0.157 FPS
  355. Count of elements                        : 1080
  356. Stream size                              : 83.5 KiB (0%)
  357. Title                                    : Thai
  358. Language                                 : Thai
  359. Default                                  : No
  360. Forced                                   : No

  361. Text #21
  362. ID                                       : 25
  363. Format                                   : UTF-8
  364. Codec ID                                 : S_TEXT/UTF8
  365. Codec ID/Info                            : UTF-8 Plain Text
  366. Duration                                 : 1 h 55 min
  367. Bit rate                                 : 47 b/s
  368. Frame rate                               : 0.139 FPS
  369. Count of elements                        : 959
  370. Stream size                              : 40.0 KiB (0%)
  371. Title                                    : Turkish
  372. Language                                 : Turkish
  373. Default                                  : No
  374. Forced                                   : No

  375. Menu
  376. 00:00:00.000                             : en:Chapter 01
  377. 00:15:02.000                             : en:Chapter 02
  378. 00:30:06.000                             : en:Chapter 03
  379. 00:45:16.000                             : en:Chapter 04
  380. 01:01:57.000                             : en:Chapter 05
  381. 01:17:23.000                             : en:Chapter 06
  382. 01:35:15.500                             : en:Chapter 07
  383. 01:45:56.000                             : en:Chapter 08
复制代码





                                       
                                       

                                       
                                       
                                       




回复

使用道具 举报

懒得打字嘛,点击右侧快捷回复 【右侧内容,后台自定义】
您需要登录后才可以回帖 登录 | 立即加入

本版积分规则

Archiver|小黑屋| 蓝光电影网 |网站地图

Copyright © 2021 Comsenz Inc. Powered by 蓝光电影网

蓝光电影网

本站内容由用户自主分享和转载自互联网,转载目的在于传递更多信息,并不代表本网赞同其观点和对其真实性负责。

如有侵权、违反国家法律政策行为,请联系我们,我们会第一时间及时清除和处理!

举报反馈邮箱:[email protected]

快速回复 返回顶部 返回列表