找回密码

蓝光电影网

查看: 15|回复: 0

[剧情] 上流俗女 The.Entitled.2022.FILIPINO.1080p.NF.WEBRip.DDP5.1.x264-SMURF 3.29GB

[复制链接]
蓝光币
886
发表于 2022-7-29 17:19:09 | 显示全部楼层 |阅读模式


◎标  题 上流俗女
◎片  名 The Entitled
◎年  代 2022
◎产  地 菲律宾
◎类  别 剧情 / 笑剧 / 恋爱
◎语  言 菲律宾语
◎上映日期 2022-07-08(菲律宾)
◎IMDb链接 https://www.imdb.com/title/tt21030232/
◎豆瓣链接 https://movie.douban.com/subject/35955842/
◎演  员 JC·德·维拉 JC de Vera
        Alex Gonzaga
◎简  介

  贝琳达得知关系冷淡的父亲事酒店富翁。随后,在一位诱人律师的帮助下,她稀里糊涂的一头扎进了崭新而复杂的生活方式
  1. Video
  2. ID                                       : 1
  3. Format                                   : AVC
  4. Format/Info                              : Advanced Video Codec
  5. Format profile                           : [email protected]
  6. Format settings                          : CABAC / 3 Ref Frames
  7. Format settings, CABAC                   : Yes
  8. Format settings, Reference frames        : 3 frames
  9. Codec ID                                 : V_MPEG4/ISO/AVC
  10. Duration                                 : 1 h 38 min
  11. Bit rate mode                            : Variable
  12. Bit rate                                 : 3 471 kb/s
  13. Nominal bit rate                         : 4 220 kb/s
  14. Maximum bit rate                         : 6 330 kb/s
  15. Width                                    : 1 920 pixels
  16. Height                                   : 1 080 pixels
  17. Display aspect ratio                     : 16:9
  18. Frame rate mode                          : Constant
  19. Frame rate                               : 23.976 (24000/1001/189150) FPS
  20. Color space                              : YUV
  21. Chroma subsampling                       : 4:2:0
  22. Bit depth                                : 8 bits
  23. Scan type                                : Progressive
  24. Bits/(Pixel*Frame)                       : 0.070
  25. Stream size                              : 2.40 GiB (73%)
  26. Writing library                          : x264 core 148 r2727 7d026e8
  27. Encoding settings                        : cabac=1 / ref=3 / deblock=1:0:0 / analyse=0x1:0x111 / me=umh / subme=10 / psy=1 / psy_rd=1.00:0.00 / mixed_ref=1 / me_range=24 / chroma_me=1 / trellis=2 / 8x8dct=0 / cqm=0 / deadzone=21,11 / fast_pskip=1 / chroma_qp_offset=-2 / threads=8 / lookahead_threads=1 / sliced_threads=0 / nr=0 / decimate=1 / interlaced=0 / bluray_compat=0 / stitchable=1 / constrained_intra=0 / bframes=2 / b_pyramid=0 / b_adapt=2 / b_bias=0 / direct=3 / weightb=1 / open_gop=0 / weightp=2 / keyint=250 / keyint_min=23 / scenecut=0 / intra_refresh=0 / rc_lookahead=48 / rc=2pass / mbtree=1 / bitrate=4220 / ratetol=1.0 / qcomp=0.50 / qpmin=6 / qpmax=51 / qpstep=4 / cplxblur=20.0 / qblur=0.5 / vbv_maxrate=6330 / vbv_bufsize=8440 / nal_hrd=vbr / filler=0 / ip_ratio=1.40 / aq=1:1.00
  28. Language                                 : fil
  29. Default                                  : Yes
  30. Forced                                   : No
  31. Audio #1
  32. ID                                       : 2
  33. Format                                   : E-AC-3
  34. Format/Info                              : Enhanced AC-3
  35. Commercial name                          : Dolby Digital Plus
  36. Codec ID                                 : A_EAC3
  37. Duration                                 : 1 h 38 min
  38. Bit rate mode                            : Constant
  39. Bit rate                                 : 640 kb/s
  40. Channel(s)                               : 6 channels
  41. Channel layout                           : L R C LFE Ls Rs
  42. Sampling rate                            : 48.0 kHz
  43. Frame rate                               : 31.250 FPS (1536 SPF)
  44. Compression mode                         : Lossy
  45. Stream size                              : 453 MiB (13%)
  46. Language                                 : fil
  47. Service kind                             : Complete Main
  48. Default                                  : Yes
  49. Forced                                   : No
  50. Audio #2
  51. ID                                       : 3
  52. Format                                   : E-AC-3
  53. Format/Info                              : Enhanced AC-3
  54. Commercial name                          : Dolby Digital Plus
  55. Codec ID                                 : A_EAC3
  56. Duration                                 : 1 h 38 min
  57. Bit rate mode                            : Constant
  58. Bit rate                                 : 640 kb/s
  59. Channel(s)                               : 6 channels
  60. Channel layout                           : L R C LFE Ls Rs
  61. Sampling rate                            : 48.0 kHz
  62. Frame rate                               : 31.250 FPS (1536 SPF)
  63. Compression mode                         : Lossy
  64. Stream size                              : 453 MiB (13%)
  65. Language                                 : English
  66. Service kind                             : Complete Main
  67. Default                                  : No
  68. Forced                                   : No
  69. Text #1
  70. ID                                       : 4
  71. Format                                   : UTF-8
  72. Codec ID                                 : S_TEXT/UTF8
  73. Codec ID/Info                            : UTF-8 Plain Text
  74. Duration                                 : 1 h 38 min
  75. Bit rate                                 : 21 b/s
  76. Frame rate                               : 0.072 FPS
  77. Count of elements                        : 424
  78. Stream size                              : 15.5 KiB (0%)
  79. Title                                    : Forced
  80. Language                                 : fil
  81. Default                                  : Yes
  82. Forced                                   : Yes
  83. Text #2
  84. ID                                       : 5
  85. Format                                   : UTF-8
  86. Codec ID                                 : S_TEXT/UTF8
  87. Codec ID/Info                            : UTF-8 Plain Text
  88. Duration                                 : 1 h 34 min
  89. Bit rate                                 : 75 b/s
  90. Frame rate                               : 0.257 FPS
  91. Count of elements                        : 1461
  92. Stream size                              : 52.3 KiB (0%)
  93. Language                                 : fil
  94. Default                                  : No
  95. Forced                                   : No
  96. Text #3
  97. ID                                       : 6
  98. Format                                   : UTF-8
  99. Codec ID                                 : S_TEXT/UTF8
  100. Codec ID/Info                            : UTF-8 Plain Text
  101. Duration                                 : 1 h 34 min
  102. Bit rate                                 : 90 b/s
  103. Frame rate                               : 0.284 FPS
  104. Count of elements                        : 1618
  105. Stream size                              : 63.0 KiB (0%)
  106. Title                                    : SDH
  107. Language                                 : fil
  108. Default                                  : No
  109. Forced                                   : No
  110. Text #4
  111. ID                                       : 7
  112. Format                                   : UTF-8
  113. Codec ID                                 : S_TEXT/UTF8
  114. Codec ID/Info                            : UTF-8 Plain Text
  115. Duration                                 : 1 h 38 min
  116. Bit rate                                 : 117 b/s
  117. Frame rate                               : 0.301 FPS
  118. Count of elements                        : 1775
  119. Stream size                              : 84.4 KiB (0%)
  120. Language                                 : Arabic
  121. Default                                  : No
  122. Forced                                   : No
  123. Text #5
  124. ID                                       : 8
  125. Format                                   : UTF-8
  126. Codec ID                                 : S_TEXT/UTF8
  127. Codec ID/Info                            : UTF-8 Plain Text
  128. Duration                                 : 1 h 38 min
  129. Bit rate                                 : 67 b/s
  130. Frame rate                               : 0.301 FPS
  131. Count of elements                        : 1775
  132. Stream size                              : 48.7 KiB (0%)
  133. Language                                 : Czech
  134. Default                                  : No
  135. Forced                                   : No
  136. Text #6
  137. ID                                       : 9
  138. Format                                   : UTF-8
  139. Codec ID                                 : S_TEXT/UTF8
  140. Codec ID/Info                            : UTF-8 Plain Text
  141. Duration                                 : 1 h 38 min
  142. Bit rate                                 : 67 b/s
  143. Frame rate                               : 0.300 FPS
  144. Count of elements                        : 1773
  145. Stream size                              : 48.9 KiB (0%)
  146. Language                                 : Danish
  147. Default                                  : No
  148. Forced                                   : No
  149. Text #7
  150. ID                                       : 10
  151. Format                                   : UTF-8
  152. Codec ID                                 : S_TEXT/UTF8
  153. Codec ID/Info                            : UTF-8 Plain Text
  154. Duration                                 : 1 h 38 min
  155. Bit rate                                 : 70 b/s
  156. Frame rate                               : 0.299 FPS
  157. Count of elements                        : 1764
  158. Stream size                              : 50.9 KiB (0%)
  159. Language                                 : German
  160. Default                                  : No
  161. Forced                                   : No
  162. Text #8
  163. ID                                       : 11
  164. Format                                   : UTF-8
  165. Codec ID                                 : S_TEXT/UTF8
  166. Codec ID/Info                            : UTF-8 Plain Text
  167. Duration                                 : 1 h 38 min
  168. Bit rate                                 : 113 b/s
  169. Frame rate                               : 0.301 FPS
  170. Count of elements                        : 1775
  171. Stream size                              : 81.8 KiB (0%)
  172. Language                                 : Greek
  173. Default                                  : No
  174. Forced                                   : No
  175. Text #9
  176. ID                                       : 12
  177. Format                                   : UTF-8
  178. Codec ID                                 : S_TEXT/UTF8
  179. Codec ID/Info                            : UTF-8 Plain Text
  180. Duration                                 : 1 h 34 min
  181. Bit rate                                 : 86 b/s
  182. Frame rate                               : 0.350 FPS
  183. Count of elements                        : 1979
  184. Stream size                              : 59.8 KiB (0%)
  185. Language                                 : English
  186. Default                                  : No
  187. Forced                                   : No
  188. Text #10
  189. ID                                       : 13
  190. Format                                   : UTF-8
  191. Codec ID                                 : S_TEXT/UTF8
  192. Codec ID/Info                            : UTF-8 Plain Text
  193. Duration                                 : 1 h 33 min
  194. Bit rate                                 : 58 b/s
  195. Frame rate                               : 0.241 FPS
  196. Count of elements                        : 1356
  197. Stream size                              : 40.4 KiB (0%)
  198. Language                                 : English
  199. Default                                  : No
  200. Forced                                   : No
  201. Text #11
  202. ID                                       : 14
  203. Format                                   : UTF-8
  204. Codec ID                                 : S_TEXT/UTF8
  205. Codec ID/Info                            : UTF-8 Plain Text
  206. Duration                                 : 1 h 34 min
  207. Bit rate                                 : 97 b/s
  208. Frame rate                               : 0.383 FPS
  209. Count of elements                        : 2180
  210. Stream size                              : 67.8 KiB (0%)
  211. Title                                    : SDH
  212. Language                                 : English
  213. Default                                  : No
  214. Forced                                   : No
  215. Text #12
  216. ID                                       : 15
  217. Format                                   : UTF-8
  218. Codec ID                                 : S_TEXT/UTF8
  219. Codec ID/Info                            : UTF-8 Plain Text
  220. Duration                                 : 1 h 38 min
  221. Bit rate                                 : 68 b/s
  222. Frame rate                               : 0.300 FPS
  223. Count of elements                        : 1769
  224. Stream size                              : 49.3 KiB (0%)
  225. Language                                 : Spanish
  226. Default                                  : No
  227. Forced                                   : No
  228. Text #13
  229. ID                                       : 16
  230. Format                                   : UTF-8
  231. Codec ID                                 : S_TEXT/UTF8
  232. Codec ID/Info                            : UTF-8 Plain Text
  233. Duration                                 : 1 h 38 min
  234. Bit rate                                 : 67 b/s
  235. Frame rate                               : 0.301 FPS
  236. Count of elements                        : 1774
  237. Stream size                              : 49.0 KiB (0%)
  238. Title                                    : European
  239. Language                                 : Spanish
  240. Default                                  : No
  241. Forced                                   : No
  242. Text #14
  243. ID                                       : 17
  244. Format                                   : UTF-8
  245. Codec ID                                 : S_TEXT/UTF8
  246. Codec ID/Info                            : UTF-8 Plain Text
  247. Duration                                 : 1 h 38 min
  248. Bit rate                                 : 66 b/s
  249. Frame rate                               : 0.301 FPS
  250. Count of elements                        : 1774
  251. Stream size                              : 48.1 KiB (0%)
  252. Language                                 : Finnish
  253. Default                                  : No
  254. Forced                                   : No
  255. Text #15
  256. ID                                       : 18
  257. Format                                   : UTF-8
  258. Codec ID                                 : S_TEXT/UTF8
  259. Codec ID/Info                            : UTF-8 Plain Text
  260. Duration                                 : 1 h 38 min
  261. Bit rate                                 : 64 b/s
  262. Frame rate                               : 0.299 FPS
  263. Count of elements                        : 1765
  264. Stream size                              : 46.3 KiB (0%)
  265. Language                                 : French
  266. Default                                  : No
  267. Forced                                   : No
  268. Text #16
  269. ID                                       : 19
  270. Format                                   : UTF-8
  271. Codec ID                                 : S_TEXT/UTF8
  272. Codec ID/Info                            : UTF-8 Plain Text
  273. Duration                                 : 1 h 38 min
  274. Bit rate                                 : 102 b/s
  275. Frame rate                               : 0.301 FPS
  276. Count of elements                        : 1775
  277. Stream size                              : 73.9 KiB (0%)
  278. Language                                 : Hebrew
  279. Default                                  : No
  280. Forced                                   : No
  281. Text #17
  282. ID                                       : 20
  283. Format                                   : UTF-8
  284. Codec ID                                 : S_TEXT/UTF8
  285. Codec ID/Info                            : UTF-8 Plain Text
  286. Duration                                 : 1 h 38 min
  287. Bit rate                                 : 56 b/s
  288. Frame rate                               : 0.300 FPS
  289. Count of elements                        : 1771
  290. Stream size                              : 40.9 KiB (0%)
  291. Language                                 : Croatian
  292. Default                                  : No
  293. Forced                                   : No
  294. Text #18
  295. ID                                       : 21
  296. Format                                   : UTF-8
  297. Codec ID                                 : S_TEXT/UTF8
  298. Codec ID/Info                            : UTF-8 Plain Text
  299. Duration                                 : 1 h 38 min
  300. Bit rate                                 : 66 b/s
  301. Frame rate                               : 0.301 FPS
  302. Count of elements                        : 1776
  303. Stream size                              : 48.0 KiB (0%)
  304. Language                                 : Hungarian
  305. Default                                  : No
  306. Forced                                   : No
  307. Text #19
  308. ID                                       : 22
  309. Format                                   : UTF-8
  310. Codec ID                                 : S_TEXT/UTF8
  311. Codec ID/Info                            : UTF-8 Plain Text
  312. Duration                                 : 1 h 38 min
  313. Bit rate                                 : 67 b/s
  314. Frame rate                               : 0.301 FPS
  315. Count of elements                        : 1775
  316. Stream size                              : 48.8 KiB (0%)
  317. Language                                 : Indonesian
  318. Default                                  : No
  319. Forced                                   : No
  320. Text #20
  321. ID                                       : 23
  322. Format                                   : UTF-8
  323. Codec ID                                 : S_TEXT/UTF8
  324. Codec ID/Info                            : UTF-8 Plain Text
  325. Duration                                 : 1 h 38 min
  326. Bit rate                                 : 66 b/s
  327. Frame rate                               : 0.300 FPS
  328. Count of elements                        : 1771
  329. Stream size                              : 48.1 KiB (0%)
  330. Language                                 : Italian
  331. Default                                  : No
  332. Forced                                   : No
  333. Text #21
  334. ID                                       : 24
  335. Format                                   : UTF-8
  336. Codec ID                                 : S_TEXT/UTF8
  337. Codec ID/Info                            : UTF-8 Plain Text
  338. Duration                                 : 1 h 38 min
  339. Bit rate                                 : 61 b/s
  340. Frame rate                               : 0.278 FPS
  341. Count of elements                        : 1642
  342. Stream size                              : 44.6 KiB (0%)
  343. Language                                 : Japanese
  344. Default                                  : No
  345. Forced                                   : No
  346. Text #22
  347. ID                                       : 25
  348. Format                                   : UTF-8
  349. Codec ID                                 : S_TEXT/UTF8
  350. Codec ID/Info                            : UTF-8 Plain Text
  351. Duration                                 : 1 h 38 min
  352. Bit rate                                 : 87 b/s
  353. Frame rate                               : 0.299 FPS
  354. Count of elements                        : 1763
  355. Stream size                              : 62.7 KiB (0%)
  356. Language                                 : Korean
  357. Default                                  : No
  358. Forced                                   : No
  359. Text #23
  360. ID                                       : 26
  361. Format                                   : UTF-8
  362. Codec ID                                 : S_TEXT/UTF8
  363. Codec ID/Info                            : UTF-8 Plain Text
  364. Duration                                 : 1 h 38 min
  365. Bit rate                                 : 67 b/s
  366. Frame rate                               : 0.299 FPS
  367. Count of elements                        : 1767
  368. Stream size                              : 48.8 KiB (0%)
  369. Language                                 : Malay
  370. Default                                  : No
  371. Forced                                   : No
  372. Text #24
  373. ID                                       : 27
  374. Format                                   : UTF-8
  375. Codec ID                                 : S_TEXT/UTF8
  376. Codec ID/Info                            : UTF-8 Plain Text
  377. Duration                                 : 1 h 38 min
  378. Bit rate                                 : 66 b/s
  379. Frame rate                               : 0.299 FPS
  380. Count of elements                        : 1768
  381. Stream size                              : 48.2 KiB (0%)
  382. Language                                 : Norwegian Bokmal
  383. Default                                  : No
  384. Forced                                   : No
  385. Text #25
  386. ID                                       : 28
  387. Format                                   : UTF-8
  388. Codec ID                                 : S_TEXT/UTF8
  389. Codec ID/Info                            : UTF-8 Plain Text
  390. Duration                                 : 1 h 38 min
  391. Bit rate                                 : 65 b/s
  392. Frame rate                               : 0.300 FPS
  393. Count of elements                        : 1771
  394. Stream size                              : 47.2 KiB (0%)
  395. Language                                 : Dutch
  396. Default                                  : No
  397. Forced                                   : No
  398. Text #26
  399. ID                                       : 29
  400. Format                                   : UTF-8
  401. Codec ID                                 : S_TEXT/UTF8
  402. Codec ID/Info                            : UTF-8 Plain Text
  403. Duration                                 : 1 h 38 min
  404. Bit rate                                 : 54 b/s
  405. Frame rate                               : 0.299 FPS
  406. Count of elements                        : 1768
  407. Stream size                              : 39.3 KiB (0%)
  408. Language                                 : Polish
  409. Default                                  : No
  410. Forced                                   : No
  411. Text #27
  412. ID                                       : 30
  413. Format                                   : UTF-8
  414. Codec ID                                 : S_TEXT/UTF8
  415. Codec ID/Info                            : UTF-8 Plain Text
  416. Duration                                 : 1 h 38 min
  417. Bit rate                                 : 67 b/s
  418. Frame rate                               : 0.301 FPS
  419. Count of elements                        : 1775
  420. Stream size                              : 48.6 KiB (0%)
  421. Language                                 : Portuguese
  422. Default                                  : No
  423. Forced                                   : No
  424. Text #28
  425. ID                                       : 31
  426. Format                                   : UTF-8
  427. Codec ID                                 : S_TEXT/UTF8
  428. Codec ID/Info                            : UTF-8 Plain Text
  429. Duration                                 : 1 h 38 min
  430. Bit rate                                 : 64 b/s
  431. Frame rate                               : 0.301 FPS
  432. Count of elements                        : 1776
  433. Stream size                              : 46.2 KiB (0%)
  434. Title                                    : Brazilian
  435. Language                                 : Portuguese
  436. Default                                  : No
  437. Forced                                   : No
  438. Text #29
  439. ID                                       : 32
  440. Format                                   : UTF-8
  441. Codec ID                                 : S_TEXT/UTF8
  442. Codec ID/Info                            : UTF-8 Plain Text
  443. Duration                                 : 1 h 38 min
  444. Bit rate                                 : 73 b/s
  445. Frame rate                               : 0.299 FPS
  446. Count of elements                        : 1768
  447. Stream size                              : 52.7 KiB (0%)
  448. Language                                 : Romanian
  449. Default                                  : No
  450. Forced                                   : No
  451. Text #30
  452. ID                                       : 33
  453. Format                                   : UTF-8
  454. Codec ID                                 : S_TEXT/UTF8
  455. Codec ID/Info                            : UTF-8 Plain Text
  456. Duration                                 : 1 h 38 min
  457. Bit rate                                 : 65 b/s
  458. Frame rate                               : 0.301 FPS
  459. Count of elements                        : 1774
  460. Stream size                              : 47.4 KiB (0%)
  461. Language                                 : Swedish
  462. Default                                  : No
  463. Forced                                   : No
  464. Text #31
  465. ID                                       : 34
  466. Format                                   : UTF-8
  467. Codec ID                                 : S_TEXT/UTF8
  468. Codec ID/Info                            : UTF-8 Plain Text
  469. Duration                                 : 1 h 38 min
  470. Bit rate                                 : 175 b/s
  471. Frame rate                               : 0.301 FPS
  472. Count of elements                        : 1775
  473. Stream size                              : 126 KiB (0%)
  474. Language                                 : Thai
  475. Default                                  : No
  476. Forced                                   : No
  477. Text #32
  478. ID                                       : 35
  479. Format                                   : UTF-8
  480. Codec ID                                 : S_TEXT/UTF8
  481. Codec ID/Info                            : UTF-8 Plain Text
  482. Duration                                 : 1 h 38 min
  483. Bit rate                                 : 67 b/s
  484. Frame rate                               : 0.301 FPS
  485. Count of elements                        : 1775
  486. Stream size                              : 48.5 KiB (0%)
  487. Language                                 : Turkish
  488. Default                                  : No
  489. Forced                                   : No
  490. Text #33
  491. ID                                       : 36
  492. Format                                   : UTF-8
  493. Codec ID                                 : S_TEXT/UTF8
  494. Codec ID/Info                            : UTF-8 Plain Text
  495. Duration                                 : 1 h 38 min
  496. Bit rate                                 : 104 b/s
  497. Frame rate                               : 0.301 FPS
  498. Count of elements                        : 1775
  499. Stream size                              : 75.6 KiB (0%)
  500. Language                                 : Ukrainian
  501. Default                                  : No
  502. Forced                                   : No
  503. Text #34
  504. ID                                       : 37
  505. Format                                   : UTF-8
  506. Codec ID                                 : S_TEXT/UTF8
  507. Codec ID/Info                            : UTF-8 Plain Text
  508. Duration                                 : 1 h 38 min
  509. Bit rate                                 : 97 b/s
  510. Frame rate                               : 0.300 FPS
  511. Count of elements                        : 1773
  512. Stream size                              : 70.3 KiB (0%)
  513. Language                                 : Vietnamese
  514. Default                                  : No
  515. Forced                                   : No
  516. Text #35
  517. ID                                       : 38
  518. Format                                   : UTF-8
  519. Codec ID                                 : S_TEXT/UTF8
  520. Codec ID/Info                            : UTF-8 Plain Text
  521. Duration                                 : 1 h 38 min
  522. Bit rate                                 : 67 b/s
  523. Frame rate                               : 0.301 FPS
  524. Count of elements                        : 1774
  525. Stream size                              : 48.5 KiB (0%)
  526. Title                                    : Simplified
  527. Language                                 : Chinese
  528. Default                                  : No
  529. Forced                                   : No
  530. Text #36
  531. ID                                       : 39
  532. Format                                   : UTF-8
  533. Codec ID                                 : S_TEXT/UTF8
  534. Codec ID/Info                            : UTF-8 Plain Text
  535. Duration                                 : 1 h 38 min
  536. Bit rate                                 : 69 b/s
  537. Frame rate                               : 0.301 FPS
  538. Count of elements                        : 1776
  539. Stream size                              : 50.1 KiB (0%)
  540. Title                                    : Traditional
  541. Language                                 : Chinese
  542. Default                                  : No
  543. Forced                                   : No
复制代码







                                       
                                       

                                       
                                       
                                       




回复

使用道具 举报

懒得打字嘛,点击右侧快捷回复 【右侧内容,后台自定义】
您需要登录后才可以回帖 登录 | 立即加入

本版积分规则

Archiver|小黑屋| 蓝光电影网 |网站地图

Copyright © 2021 Comsenz Inc. Powered by 蓝光电影网

蓝光电影网

本站内容由用户自主分享和转载自互联网,转载目的在于传递更多信息,并不代表本网赞同其观点和对其真实性负责。

如有侵权、违反国家法律政策行为,请联系我们,我们会第一时间及时清除和处理!

举报反馈邮箱:[email protected]

快速回复 返回顶部 返回列表