找回密码

蓝光电影网

查看: 116|回复: 1

[2160p] 不好 Not.Okay.2022.2160p.WEB-DL.DD5.1.DV.MKV.x265-KOGi 12.06GB

[复制链接]
蓝光币
953
发表于 2022-7-29 17:19:07 | 显示全部楼层 |阅读模式


◎标  题 欠好
◎译  名 不OK
◎片  名 Not Okay
◎年  代 2022
◎产  地 美国
◎类  别 剧情 / 笑剧
◎语  言 英语
◎上映日期 2022-07-29(美国收集)
◎IMDb链接 https://www.imdb.com/title/tt14814040/
◎豆瓣链接 https://movie.douban.com/subject/35552062/
◎片  长 100分钟
◎导  演 奎恩·谢法德 Quinn Shephard
◎编  剧 奎恩·谢法德 Quinn Shephard
◎演  员 佐伊·达奇 Zoey Deutch
       迪伦·奥布莱恩 Dylan O'Brien
       艾伯丝·戴维兹 Embeth Davidtz
       布雷南·布朗 Brennan Brown
       卡兰·索尼 Karan Soni
       米娅·伊萨克 Mia Isaac
       莎拉·亚金 Sarah Yarkin
       纳迪娅·亚历山大 Nadia Alexander
       布莱斯·科里根 Blaise Corrigan
       洛根·克劳福德 Logan Crawford
       Kapil Bawa Kapil Bawa
       Kirk White Kirk White
◎简  介

  报告一个误入邪路的年轻女子渴望朋友和名声,她伪装去巴黎观光,以提升自己在交际媒体上的形象。当现实天下忽然发生了一个可怕的事务、成为她设想观光的一部分,她好心的假话成为了道德窘境,赐与她想要的一切关注。
  1. Video
  2. ID                                       : 1
  3. Format                                   : HEVC
  4. Format/Info                              : High Efficiency Video Coding
  5. Format profile                           : Main [email protected]@High
  6. HDR format                               : Dolby Vision, Version 1.0, dvhe.05.06, BL+RPU
  7. Codec ID                                 : V_MPEGH/ISO/HEVC
  8. Duration                                 : 1 h 42 min
  9. Bit rate                                 : 16.6 Mb/s
  10. Width                                    : 3 840 pixels
  11. Height                                   : 2 160 pixels
  12. Display aspect ratio                     : 16:9
  13. Frame rate mode                          : Constant
  14. Frame rate                               : 24.000 FPS
  15. Color space                              : YUV
  16. Chroma subsampling                       : 4:2:0
  17. Bit depth                                : 10 bits
  18. Bits/(Pixel*Frame)                       : 0.083
  19. Stream size                              : 11.9 GiB (98%)
  20. Language                                 : English
  21. Default                                  : Yes
  22. Forced                                   : No
  23. Color range                              : Full
  24. Audio
  25. ID                                       : 2
  26. Format                                   : E-AC-3
  27. Format/Info                              : Enhanced AC-3
  28. Commercial name                          : Dolby Digital Plus
  29. Codec ID                                 : A_EAC3
  30. Duration                                 : 1 h 42 min
  31. Bit rate mode                            : Constant
  32. Bit rate                                 : 256 kb/s
  33. Channel(s)                               : 6 channels
  34. Channel layout                           : L R C LFE Ls Rs
  35. Sampling rate                            : 48.0 kHz
  36. Frame rate                               : 31.250 FPS (1536 SPF)
  37. Compression mode                         : Lossy
  38. Stream size                              : 188 MiB (2%)
  39. Language                                 : English
  40. Service kind                             : Complete Main
  41. Default                                  : Yes
  42. Forced                                   : No
  43. Text #1
  44. ID                                       : 3
  45. Format                                   : UTF-8
  46. Codec ID                                 : S_TEXT/UTF8
  47. Codec ID/Info                            : UTF-8 Plain Text
  48. Duration                                 : 1 h 41 min
  49. Bit rate                                 : 78 b/s
  50. Frame rate                               : 0.263 FPS
  51. Count of elements                        : 1600
  52. Stream size                              : 58.5 KiB (0%)
  53. Title                                    : English (SDH)
  54. Language                                 : English
  55. Default                                  : No
  56. Forced                                   : No
  57. Text #2
  58. ID                                       : 4
  59. Format                                   : UTF-8
  60. Codec ID                                 : S_TEXT/UTF8
  61. Codec ID/Info                            : UTF-8 Plain Text
  62. Duration                                 : 1 h 42 min
  63. Bit rate                                 : 59 b/s
  64. Frame rate                               : 0.217 FPS
  65. Count of elements                        : 1336
  66. Stream size                              : 44.8 KiB (0%)
  67. Title                                    : ?e?tina
  68. Language                                 : Czech
  69. Default                                  : No
  70. Forced                                   : No
  71. Text #3
  72. ID                                       : 5
  73. Format                                   : UTF-8
  74. Codec ID                                 : S_TEXT/UTF8
  75. Codec ID/Info                            : UTF-8 Plain Text
  76. Duration                                 : 1 h 42 min
  77. Bit rate                                 : 57 b/s
  78. Frame rate                               : 0.223 FPS
  79. Count of elements                        : 1375
  80. Stream size                              : 43.3 KiB (0%)
  81. Title                                    : Dansk
  82. Language                                 : Danish
  83. Default                                  : No
  84. Forced                                   : No
  85. Text #4
  86. ID                                       : 6
  87. Format                                   : UTF-8
  88. Codec ID                                 : S_TEXT/UTF8
  89. Codec ID/Info                            : UTF-8 Plain Text
  90. Duration                                 : 1 h 42 min
  91. Bit rate                                 : 61 b/s
  92. Frame rate                               : 0.217 FPS
  93. Count of elements                        : 1336
  94. Stream size                              : 46.1 KiB (0%)
  95. Title                                    : Deutsch
  96. Language                                 : German
  97. Default                                  : No
  98. Forced                                   : No
  99. Text #5
  100. ID                                       : 7
  101. Format                                   : UTF-8
  102. Codec ID                                 : S_TEXT/UTF8
  103. Codec ID/Info                            : UTF-8 Plain Text
  104. Duration                                 : 1 h 42 min
  105. Bit rate                                 : 100 b/s
  106. Frame rate                               : 0.226 FPS
  107. Count of elements                        : 1392
  108. Stream size                              : 75.5 KiB (0%)
  109. Title                                    : Greek
  110. Language                                 : Greek
  111. Default                                  : No
  112. Forced                                   : No
  113. Text #6
  114. ID                                       : 8
  115. Format                                   : UTF-8
  116. Codec ID                                 : S_TEXT/UTF8
  117. Codec ID/Info                            : UTF-8 Plain Text
  118. Duration                                 : 1 h 42 min
  119. Bit rate                                 : 61 b/s
  120. Frame rate                               : 0.219 FPS
  121. Count of elements                        : 1348
  122. Stream size                              : 46.3 KiB (0%)
  123. Title                                    : Espa?ol
  124. Language                                 : Spanish
  125. Default                                  : No
  126. Forced                                   : No
  127. Text #7
  128. ID                                       : 9
  129. Format                                   : UTF-8
  130. Codec ID                                 : S_TEXT/UTF8
  131. Codec ID/Info                            : UTF-8 Plain Text
  132. Duration                                 : 1 h 42 min
  133. Bit rate                                 : 61 b/s
  134. Frame rate                               : 0.216 FPS
  135. Count of elements                        : 1331
  136. Stream size                              : 46.1 KiB (0%)
  137. Title                                    : Espa?ol (Latinoamericano)
  138. Language                                 : Spanish
  139. Default                                  : No
  140. Forced                                   : No
  141. Text #8
  142. ID                                       : 10
  143. Format                                   : UTF-8
  144. Codec ID                                 : S_TEXT/UTF8
  145. Codec ID/Info                            : UTF-8 Plain Text
  146. Duration                                 : 1 h 42 min
  147. Bit rate                                 : 60 b/s
  148. Frame rate                               : 0.225 FPS
  149. Count of elements                        : 1384
  150. Stream size                              : 45.7 KiB (0%)
  151. Title                                    : Suomi
  152. Language                                 : Finnish
  153. Default                                  : No
  154. Forced                                   : No
  155. Text #9
  156. ID                                       : 11
  157. Format                                   : UTF-8
  158. Codec ID                                 : S_TEXT/UTF8
  159. Codec ID/Info                            : UTF-8 Plain Text
  160. Duration                                 : 1 h 42 min
  161. Bit rate                                 : 64 b/s
  162. Frame rate                               : 0.224 FPS
  163. Count of elements                        : 1379
  164. Stream size                              : 48.8 KiB (0%)
  165. Title                                    : Fran?ais
  166. Language                                 : French
  167. Default                                  : No
  168. Forced                                   : No
  169. Text #10
  170. ID                                       : 12
  171. Format                                   : UTF-8
  172. Codec ID                                 : S_TEXT/UTF8
  173. Codec ID/Info                            : UTF-8 Plain Text
  174. Duration                                 : 1 h 42 min
  175. Bit rate                                 : 62 b/s
  176. Frame rate                               : 0.222 FPS
  177. Count of elements                        : 1365
  178. Stream size                              : 46.7 KiB (0%)
  179. Title                                    : Magyar
  180. Language                                 : Hungarian
  181. Default                                  : No
  182. Forced                                   : No
  183. Text #11
  184. ID                                       : 13
  185. Format                                   : UTF-8
  186. Codec ID                                 : S_TEXT/UTF8
  187. Codec ID/Info                            : UTF-8 Plain Text
  188. Duration                                 : 1 h 42 min
  189. Bit rate                                 : 53 b/s
  190. Frame rate                               : 0.214 FPS
  191. Count of elements                        : 1320
  192. Stream size                              : 40.0 KiB (0%)
  193. Title                                    : Italiano
  194. Language                                 : Italian
  195. Default                                  : No
  196. Forced                                   : No
  197. Text #12
  198. ID                                       : 14
  199. Format                                   : UTF-8
  200. Codec ID                                 : S_TEXT/UTF8
  201. Codec ID/Info                            : UTF-8 Plain Text
  202. Duration                                 : 1 h 42 min
  203. Bit rate                                 : 53 b/s
  204. Frame rate                               : 0.228 FPS
  205. Count of elements                        : 1404
  206. Stream size                              : 40.1 KiB (0%)
  207. Title                                    : Japanese
  208. Language                                 : Japanese
  209. Default                                  : No
  210. Forced                                   : No
  211. Text #13
  212. ID                                       : 15
  213. Format                                   : UTF-8
  214. Codec ID                                 : S_TEXT/UTF8
  215. Codec ID/Info                            : UTF-8 Plain Text
  216. Duration                                 : 1 h 42 min
  217. Bit rate                                 : 66 b/s
  218. Frame rate                               : 0.230 FPS
  219. Count of elements                        : 1417
  220. Stream size                              : 50.1 KiB (0%)
  221. Title                                    : Korean
  222. Language                                 : Korean
  223. Default                                  : No
  224. Forced                                   : No
  225. Text #14
  226. ID                                       : 16
  227. Format                                   : UTF-8
  228. Codec ID                                 : S_TEXT/UTF8
  229. Codec ID/Info                            : UTF-8 Plain Text
  230. Duration                                 : 1 h 42 min
  231. Bit rate                                 : 52 b/s
  232. Frame rate                               : 0.167 FPS
  233. Count of elements                        : 1031
  234. Stream size                              : 39.8 KiB (0%)
  235. Title                                    : Nederlands
  236. Language                                 : Dutch
  237. Default                                  : No
  238. Forced                                   : No
  239. Text #15
  240. ID                                       : 17
  241. Format                                   : UTF-8
  242. Codec ID                                 : S_TEXT/UTF8
  243. Codec ID/Info                            : UTF-8 Plain Text
  244. Duration                                 : 1 h 42 min
  245. Bit rate                                 : 59 b/s
  246. Frame rate                               : 0.181 FPS
  247. Count of elements                        : 1113
  248. Stream size                              : 44.8 KiB (0%)
  249. Title                                    : Norsk
  250. Language                                 : Norwegian
  251. Default                                  : No
  252. Forced                                   : No
  253. Text #16
  254. ID                                       : 18
  255. Format                                   : UTF-8
  256. Codec ID                                 : S_TEXT/UTF8
  257. Codec ID/Info                            : UTF-8 Plain Text
  258. Duration                                 : 1 h 42 min
  259. Bit rate                                 : 56 b/s
  260. Frame rate                               : 0.218 FPS
  261. Count of elements                        : 1343
  262. Stream size                              : 42.3 KiB (0%)
  263. Title                                    : Polski
  264. Language                                 : Polish
  265. Default                                  : No
  266. Forced                                   : No
  267. Text #17
  268. ID                                       : 19
  269. Format                                   : UTF-8
  270. Codec ID                                 : S_TEXT/UTF8
  271. Codec ID/Info                            : UTF-8 Plain Text
  272. Duration                                 : 1 h 42 min
  273. Bit rate                                 : 59 b/s
  274. Frame rate                               : 0.223 FPS
  275. Count of elements                        : 1373
  276. Stream size                              : 44.6 KiB (0%)
  277. Title                                    : Português (Brasil)
  278. Language                                 : Portuguese
  279. Default                                  : No
  280. Forced                                   : No
  281. Text #18
  282. ID                                       : 20
  283. Format                                   : UTF-8
  284. Codec ID                                 : S_TEXT/UTF8
  285. Codec ID/Info                            : UTF-8 Plain Text
  286. Duration                                 : 1 h 42 min
  287. Bit rate                                 : 59 b/s
  288. Frame rate                               : 0.226 FPS
  289. Count of elements                        : 1393
  290. Stream size                              : 45.0 KiB (0%)
  291. Title                                    : Português
  292. Language                                 : Portuguese
  293. Default                                  : No
  294. Forced                                   : No
  295. Text #19
  296. ID                                       : 21
  297. Format                                   : UTF-8
  298. Codec ID                                 : S_TEXT/UTF8
  299. Codec ID/Info                            : UTF-8 Plain Text
  300. Duration                                 : 1 h 42 min
  301. Bit rate                                 : 59 b/s
  302. Frame rate                               : 0.217 FPS
  303. Count of elements                        : 1338
  304. Stream size                              : 45.1 KiB (0%)
  305. Title                                    : Roman?
  306. Language                                 : Romanian
  307. Default                                  : No
  308. Forced                                   : No
  309. Text #20
  310. ID                                       : 22
  311. Format                                   : UTF-8
  312. Codec ID                                 : S_TEXT/UTF8
  313. Codec ID/Info                            : UTF-8 Plain Text
  314. Duration                                 : 1 h 42 min
  315. Bit rate                                 : 62 b/s
  316. Frame rate                               : 0.221 FPS
  317. Count of elements                        : 1363
  318. Stream size                              : 46.9 KiB (0%)
  319. Title                                    : Sloven?ina
  320. Language                                 : Slovak
  321. Default                                  : No
  322. Forced                                   : No
  323. Text #21
  324. ID                                       : 23
  325. Format                                   : UTF-8
  326. Codec ID                                 : S_TEXT/UTF8
  327. Codec ID/Info                            : UTF-8 Plain Text
  328. Duration                                 : 1 h 42 min
  329. Bit rate                                 : 58 b/s
  330. Frame rate                               : 0.226 FPS
  331. Count of elements                        : 1390
  332. Stream size                              : 43.9 KiB (0%)
  333. Title                                    : Svenska
  334. Language                                 : Swedish
  335. Default                                  : No
  336. Forced                                   : No
  337. Text #22
  338. ID                                       : 24
  339. Format                                   : UTF-8
  340. Codec ID                                 : S_TEXT/UTF8
  341. Codec ID/Info                            : UTF-8 Plain Text
  342. Duration                                 : 1 h 42 min
  343. Bit rate                                 : 67 b/s
  344. Frame rate                               : 0.229 FPS
  345. Count of elements                        : 1409
  346. Stream size                              : 50.6 KiB (0%)
  347. Title                                    : Türk?e
  348. Language                                 : Turkish
  349. Default                                  : No
  350. Forced                                   : No
  351. Text #23
  352. ID                                       : 25
  353. Format                                   : UTF-8
  354. Codec ID                                 : S_TEXT/UTF8
  355. Codec ID/Info                            : UTF-8 Plain Text
  356. Duration                                 : 1 h 42 min
  357. Bit rate                                 : 59 b/s
  358. Frame rate                               : 0.228 FPS
  359. Count of elements                        : 1405
  360. Stream size                              : 44.6 KiB (0%)
  361. Title                                    : Chinese (Simplified)
  362. Language                                 : Chinese
  363. Default                                  : No
  364. Forced                                   : No
  365. Text #24
  366. ID                                       : 26
  367. Format                                   : UTF-8
  368. Codec ID                                 : S_TEXT/UTF8
  369. Codec ID/Info                            : UTF-8 Plain Text
  370. Duration                                 : 1 h 42 min
  371. Bit rate                                 : 58 b/s
  372. Frame rate                               : 0.230 FPS
  373. Count of elements                        : 1414
  374. Stream size                              : 43.8 KiB (0%)
  375. Title                                    : Chinese (Traditional)
  376. Language                                 : Chinese
  377. Default                                  : No
  378. Forced                                   : No
复制代码




                                       
                                       

                                       
                                       
                                       




回复

使用道具 举报

蓝光币
3
发表于 2022-8-9 08:29:00 | 显示全部楼层
也许可以下载看看
回复 支持 反对

使用道具 举报

懒得打字嘛,点击右侧快捷回复 【右侧内容,后台自定义】
您需要登录后才可以回帖 登录 | 立即加入

本版积分规则

Archiver|小黑屋| 蓝光电影网 |网站地图

Copyright © 2021 Comsenz Inc. Powered by 蓝光电影网

蓝光电影网

本站内容由用户自主分享和转载自互联网,转载目的在于传递更多信息,并不代表本网赞同其观点和对其真实性负责。

如有侵权、违反国家法律政策行为,请联系我们,我们会第一时间及时清除和处理!

举报反馈邮箱:[email protected]

快速回复 返回顶部 返回列表