找回密码

蓝光电影网

查看: 10|回复: 0

[剧情] 不好 Not.Okay.2022.1080p.DSNP.WEBRip.DDP5.1.x264-CM 4.59GB

[复制链接]
蓝光币
886
发表于 2022-7-29 17:23:36 | 显示全部楼层 |阅读模式


◎标  题 欠好
◎译  名 不OK
◎片  名 Not Okay
◎年  代 2022
◎产  地 美国
◎类  别 剧情 / 笑剧
◎语  言 英语
◎上映日期 2022-07-29(美国收集)
◎IMDb链接 https://www.imdb.com/title/tt14814040/
◎豆瓣链接 https://movie.douban.com/subject/35552062/
◎片  长 100分钟
◎导  演 奎恩·谢法德 Quinn Shephard
◎编  剧 奎恩·谢法德 Quinn Shephard
◎演  员 佐伊·达奇 Zoey Deutch
       迪伦·奥布莱恩 Dylan O'Brien
       艾伯丝·戴维兹 Embeth Davidtz
       布雷南·布朗 Brennan Brown
       卡兰·索尼 Karan Soni
       米娅·伊萨克 Mia Isaac
       莎拉·亚金 Sarah Yarkin
       纳迪娅·亚历山大 Nadia Alexander
       布莱斯·科里根 Blaise Corrigan
       洛根·克劳福德 Logan Crawford
       Kapil Bawa Kapil Bawa
       Kirk White Kirk White
◎简  介

  报告一个误入邪路的年轻女子渴望朋友和名声,她伪装去巴黎观光,以提升自己在交际媒体上的形象。当现实天下忽然发生了一个可怕的事务、成为她设想观光的一部分,她好心的假话成为了道德窘境,赐与她想要的一切关注。
  1. Video
  2. ID                                       : 1
  3. Format                                   : AVC
  4. Format/Info                              : Advanced Video Codec
  5. Format profile                           : [email protected]
  6. Format settings                          : CABAC / 4 Ref Frames
  7. Format settings, CABAC                   : Yes
  8. Format settings, Reference frames        : 4 frames
  9. Codec ID                                 : V_MPEG4/ISO/AVC
  10. Duration                                 : 1 h 42 min
  11. Bit rate mode                            : Variable
  12. Bit rate                                 : 6 142 kb/s
  13. Maximum bit rate                         : 12.7 Mb/s
  14. Width                                    : 1 920 pixels
  15. Height                                   : 1 080 pixels
  16. Display aspect ratio                     : 16:9
  17. Frame rate mode                          : Constant
  18. Frame rate                               : 24.000 FPS
  19. Color space                              : YUV
  20. Chroma subsampling                       : 4:2:0
  21. Bit depth                                : 8 bits
  22. Scan type                                : Progressive
  23. Bits/(Pixel*Frame)                       : 0.123
  24. Stream size                              : 4.41 GiB (96%)
  25. Language                                 : English
  26. Default                                  : Yes
  27. Forced                                   : No
  28. Color range                              : Limited
  29. Color primaries                          : BT.709
  30. Transfer characteristics                 : BT.709
  31. Matrix coefficients                      : BT.709
  32. Audio
  33. ID                                       : 2
  34. Format                                   : E-AC-3
  35. Format/Info                              : Enhanced AC-3
  36. Commercial name                          : Dolby Digital Plus
  37. Codec ID                                 : A_EAC3
  38. Duration                                 : 1 h 42 min
  39. Bit rate mode                            : Constant
  40. Bit rate                                 : 256 kb/s
  41. Channel(s)                               : 6 channels
  42. Channel layout                           : L R C LFE Ls Rs
  43. Sampling rate                            : 48.0 kHz
  44. Frame rate                               : 31.250 FPS (1536 SPF)
  45. Compression mode                         : Lossy
  46. Stream size                              : 188 MiB (4%)
  47. Language                                 : English
  48. Service kind                             : Complete Main
  49. Default                                  : Yes
  50. Forced                                   : No
  51. Text #1
  52. ID                                       : 3
  53. Format                                   : UTF-8
  54. Codec ID                                 : S_TEXT/UTF8
  55. Codec ID/Info                            : UTF-8 Plain Text
  56. Duration                                 : 1 h 41 min
  57. Bit rate                                 : 74 b/s
  58. Frame rate                               : 0.263 FPS
  59. Count of elements                        : 1600
  60. Stream size                              : 55.4 KiB (0%)
  61. Title                                    : SDH
  62. Language                                 : English
  63. Default                                  : No
  64. Forced                                   : No
  65. Text #2
  66. ID                                       : 4
  67. Format                                   : UTF-8
  68. Codec ID                                 : S_TEXT/UTF8
  69. Codec ID/Info                            : UTF-8 Plain Text
  70. Duration                                 : 1 h 41 min
  71. Bit rate                                 : 69 b/s
  72. Frame rate                               : 0.247 FPS
  73. Count of elements                        : 1503
  74. Stream size                              : 51.8 KiB (0%)
  75. Language                                 : English
  76. Default                                  : No
  77. Forced                                   : No
  78. Text #3
  79. ID                                       : 5
  80. Format                                   : UTF-8
  81. Codec ID                                 : S_TEXT/UTF8
  82. Codec ID/Info                            : UTF-8 Plain Text
  83. Duration                                 : 1 h 42 min
  84. Bit rate                                 : 58 b/s
  85. Frame rate                               : 0.217 FPS
  86. Count of elements                        : 1336
  87. Stream size                              : 43.7 KiB (0%)
  88. Language                                 : Czech
  89. Default                                  : No
  90. Forced                                   : No
  91. Text #4
  92. ID                                       : 6
  93. Format                                   : UTF-8
  94. Codec ID                                 : S_TEXT/UTF8
  95. Codec ID/Info                            : UTF-8 Plain Text
  96. Duration                                 : 1 h 42 min
  97. Bit rate                                 : 55 b/s
  98. Frame rate                               : 0.223 FPS
  99. Count of elements                        : 1375
  100. Stream size                              : 42.0 KiB (0%)
  101. Language                                 : Danish
  102. Default                                  : No
  103. Forced                                   : No
  104. Text #5
  105. ID                                       : 7
  106. Format                                   : UTF-8
  107. Codec ID                                 : S_TEXT/UTF8
  108. Codec ID/Info                            : UTF-8 Plain Text
  109. Duration                                 : 1 h 42 min
  110. Bit rate                                 : 59 b/s
  111. Frame rate                               : 0.217 FPS
  112. Count of elements                        : 1336
  113. Stream size                              : 44.7 KiB (0%)
  114. Language                                 : German
  115. Default                                  : No
  116. Forced                                   : No
  117. Text #6
  118. ID                                       : 8
  119. Format                                   : UTF-8
  120. Codec ID                                 : S_TEXT/UTF8
  121. Codec ID/Info                            : UTF-8 Plain Text
  122. Duration                                 : 1 h 42 min
  123. Bit rate                                 : 98 b/s
  124. Frame rate                               : 0.226 FPS
  125. Count of elements                        : 1392
  126. Stream size                              : 74.2 KiB (0%)
  127. Language                                 : Greek
  128. Default                                  : No
  129. Forced                                   : No
  130. Text #7
  131. ID                                       : 9
  132. Format                                   : UTF-8
  133. Codec ID                                 : S_TEXT/UTF8
  134. Codec ID/Info                            : UTF-8 Plain Text
  135. Duration                                 : 1 h 42 min
  136. Bit rate                                 : 59 b/s
  137. Frame rate                               : 0.219 FPS
  138. Count of elements                        : 1348
  139. Stream size                              : 44.8 KiB (0%)
  140. Language                                 : Spanish
  141. Default                                  : No
  142. Forced                                   : No
  143. Text #8
  144. ID                                       : 10
  145. Format                                   : UTF-8
  146. Codec ID                                 : S_TEXT/UTF8
  147. Codec ID/Info                            : UTF-8 Plain Text
  148. Duration                                 : 1 h 42 min
  149. Bit rate                                 : 59 b/s
  150. Frame rate                               : 0.216 FPS
  151. Count of elements                        : 1331
  152. Stream size                              : 44.6 KiB (0%)
  153. Title                                    : Latin American
  154. Language                                 : Spanish
  155. Default                                  : No
  156. Forced                                   : No
  157. Text #9
  158. ID                                       : 11
  159. Format                                   : UTF-8
  160. Codec ID                                 : S_TEXT/UTF8
  161. Codec ID/Info                            : UTF-8 Plain Text
  162. Duration                                 : 1 h 42 min
  163. Bit rate                                 : 59 b/s
  164. Frame rate                               : 0.225 FPS
  165. Count of elements                        : 1384
  166. Stream size                              : 44.4 KiB (0%)
  167. Language                                 : Finnish
  168. Default                                  : No
  169. Forced                                   : No
  170. Text #10
  171. ID                                       : 12
  172. Format                                   : UTF-8
  173. Codec ID                                 : S_TEXT/UTF8
  174. Codec ID/Info                            : UTF-8 Plain Text
  175. Duration                                 : 1 h 42 min
  176. Bit rate                                 : 63 b/s
  177. Frame rate                               : 0.224 FPS
  178. Count of elements                        : 1379
  179. Stream size                              : 47.4 KiB (0%)
  180. Language                                 : French
  181. Default                                  : No
  182. Forced                                   : No
  183. Text #11
  184. ID                                       : 13
  185. Format                                   : UTF-8
  186. Codec ID                                 : S_TEXT/UTF8
  187. Codec ID/Info                            : UTF-8 Plain Text
  188. Duration                                 : 1 h 42 min
  189. Bit rate                                 : 60 b/s
  190. Frame rate                               : 0.222 FPS
  191. Count of elements                        : 1365
  192. Stream size                              : 45.5 KiB (0%)
  193. Language                                 : Hungarian
  194. Default                                  : No
  195. Forced                                   : No
  196. Text #12
  197. ID                                       : 14
  198. Format                                   : UTF-8
  199. Codec ID                                 : S_TEXT/UTF8
  200. Codec ID/Info                            : UTF-8 Plain Text
  201. Duration                                 : 1 h 42 min
  202. Bit rate                                 : 51 b/s
  203. Frame rate                               : 0.214 FPS
  204. Count of elements                        : 1320
  205. Stream size                              : 38.9 KiB (0%)
  206. Language                                 : Italian
  207. Default                                  : No
  208. Forced                                   : No
  209. Text #13
  210. ID                                       : 15
  211. Format                                   : UTF-8
  212. Codec ID                                 : S_TEXT/UTF8
  213. Codec ID/Info                            : UTF-8 Plain Text
  214. Duration                                 : 1 h 42 min
  215. Bit rate                                 : 50 b/s
  216. Frame rate                               : 0.228 FPS
  217. Count of elements                        : 1402
  218. Stream size                              : 38.3 KiB (0%)
  219. Language                                 : Japanese
  220. Default                                  : No
  221. Forced                                   : No
  222. Text #14
  223. ID                                       : 16
  224. Format                                   : UTF-8
  225. Codec ID                                 : S_TEXT/UTF8
  226. Codec ID/Info                            : UTF-8 Plain Text
  227. Duration                                 : 1 h 42 min
  228. Bit rate                                 : 67 b/s
  229. Frame rate                               : 0.230 FPS
  230. Count of elements                        : 1417
  231. Stream size                              : 50.9 KiB (0%)
  232. Language                                 : Korean
  233. Default                                  : No
  234. Forced                                   : No
  235. Text #15
  236. ID                                       : 17
  237. Format                                   : UTF-8
  238. Codec ID                                 : S_TEXT/UTF8
  239. Codec ID/Info                            : UTF-8 Plain Text
  240. Duration                                 : 1 h 42 min
  241. Bit rate                                 : 53 b/s
  242. Frame rate                               : 0.167 FPS
  243. Count of elements                        : 1031
  244. Stream size                              : 40.3 KiB (0%)
  245. Language                                 : Dutch
  246. Default                                  : No
  247. Forced                                   : No
  248. Text #16
  249. ID                                       : 18
  250. Format                                   : UTF-8
  251. Codec ID                                 : S_TEXT/UTF8
  252. Codec ID/Info                            : UTF-8 Plain Text
  253. Duration                                 : 1 h 42 min
  254. Bit rate                                 : 57 b/s
  255. Frame rate                               : 0.181 FPS
  256. Count of elements                        : 1113
  257. Stream size                              : 43.4 KiB (0%)
  258. Language                                 : Norwegian
  259. Default                                  : No
  260. Forced                                   : No
  261. Text #17
  262. ID                                       : 19
  263. Format                                   : UTF-8
  264. Codec ID                                 : S_TEXT/UTF8
  265. Codec ID/Info                            : UTF-8 Plain Text
  266. Duration                                 : 1 h 42 min
  267. Bit rate                                 : 54 b/s
  268. Frame rate                               : 0.218 FPS
  269. Count of elements                        : 1343
  270. Stream size                              : 41.1 KiB (0%)
  271. Language                                 : Polish
  272. Default                                  : No
  273. Forced                                   : No
  274. Text #18
  275. ID                                       : 20
  276. Format                                   : UTF-8
  277. Codec ID                                 : S_TEXT/UTF8
  278. Codec ID/Info                            : UTF-8 Plain Text
  279. Duration                                 : 1 h 42 min
  280. Bit rate                                 : 57 b/s
  281. Frame rate                               : 0.226 FPS
  282. Count of elements                        : 1393
  283. Stream size                              : 43.5 KiB (0%)
  284. Language                                 : Portuguese
  285. Default                                  : No
  286. Forced                                   : No
  287. Text #19
  288. ID                                       : 21
  289. Format                                   : UTF-8
  290. Codec ID                                 : S_TEXT/UTF8
  291. Codec ID/Info                            : UTF-8 Plain Text
  292. Duration                                 : 1 h 42 min
  293. Bit rate                                 : 57 b/s
  294. Frame rate                               : 0.223 FPS
  295. Count of elements                        : 1373
  296. Stream size                              : 43.3 KiB (0%)
  297. Title                                    : Brazilian
  298. Language                                 : Portuguese
  299. Default                                  : No
  300. Forced                                   : No
  301. Text #20
  302. ID                                       : 22
  303. Format                                   : UTF-8
  304. Codec ID                                 : S_TEXT/UTF8
  305. Codec ID/Info                            : UTF-8 Plain Text
  306. Duration                                 : 1 h 42 min
  307. Bit rate                                 : 58 b/s
  308. Frame rate                               : 0.217 FPS
  309. Count of elements                        : 1338
  310. Stream size                              : 43.8 KiB (0%)
  311. Language                                 : Romanian
  312. Default                                  : No
  313. Forced                                   : No
  314. Text #21
  315. ID                                       : 23
  316. Format                                   : UTF-8
  317. Codec ID                                 : S_TEXT/UTF8
  318. Codec ID/Info                            : UTF-8 Plain Text
  319. Duration                                 : 1 h 42 min
  320. Bit rate                                 : 60 b/s
  321. Frame rate                               : 0.221 FPS
  322. Count of elements                        : 1363
  323. Stream size                              : 45.6 KiB (0%)
  324. Language                                 : Slovak
  325. Default                                  : No
  326. Forced                                   : No
  327. Text #22
  328. ID                                       : 24
  329. Format                                   : UTF-8
  330. Codec ID                                 : S_TEXT/UTF8
  331. Codec ID/Info                            : UTF-8 Plain Text
  332. Duration                                 : 1 h 42 min
  333. Bit rate                                 : 56 b/s
  334. Frame rate                               : 0.226 FPS
  335. Count of elements                        : 1390
  336. Stream size                              : 42.6 KiB (0%)
  337. Language                                 : Swedish
  338. Default                                  : No
  339. Forced                                   : No
  340. Text #23
  341. ID                                       : 25
  342. Format                                   : UTF-8
  343. Codec ID                                 : S_TEXT/UTF8
  344. Codec ID/Info                            : UTF-8 Plain Text
  345. Duration                                 : 1 h 42 min
  346. Bit rate                                 : 65 b/s
  347. Frame rate                               : 0.229 FPS
  348. Count of elements                        : 1409
  349. Stream size                              : 49.3 KiB (0%)
  350. Language                                 : Turkish
  351. Default                                  : No
  352. Forced                                   : No
  353. Text #24
  354. ID                                       : 26
  355. Format                                   : UTF-8
  356. Codec ID                                 : S_TEXT/UTF8
  357. Codec ID/Info                            : UTF-8 Plain Text
  358. Duration                                 : 1 h 42 min
  359. Bit rate                                 : 59 b/s
  360. Frame rate                               : 0.228 FPS
  361. Count of elements                        : 1405
  362. Stream size                              : 44.5 KiB (0%)
  363. Title                                    : Simplified
  364. Language                                 : Chinese
  365. Default                                  : No
  366. Forced                                   : No
  367. Text #25
  368. ID                                       : 27
  369. Format                                   : UTF-8
  370. Codec ID                                 : S_TEXT/UTF8
  371. Codec ID/Info                            : UTF-8 Plain Text
  372. Duration                                 : 1 h 42 min
  373. Bit rate                                 : 59 b/s
  374. Frame rate                               : 0.230 FPS
  375. Count of elements                        : 1414
  376. Stream size                              : 44.6 KiB (0%)
  377. Title                                    : Traditional
  378. Language                                 : Chinese
  379. Default                                  : No
  380. Forced                                   : No
  381. Menu
  382. 01:39:12.542                             : en:Credits
复制代码







                                       
                                       

                                       
                                       
                                       




回复

使用道具 举报

懒得打字嘛,点击右侧快捷回复 【右侧内容,后台自定义】
您需要登录后才可以回帖 登录 | 立即加入

本版积分规则

Archiver|小黑屋| 蓝光电影网 |网站地图

Copyright © 2021 Comsenz Inc. Powered by 蓝光电影网

蓝光电影网

本站内容由用户自主分享和转载自互联网,转载目的在于传递更多信息,并不代表本网赞同其观点和对其真实性负责。

如有侵权、违反国家法律政策行为,请联系我们,我们会第一时间及时清除和处理!

举报反馈邮箱:[email protected]

快速回复 返回顶部 返回列表