找回密码

蓝光电影网

查看: 12|回复: 0

[剧情] 紫心之恋 Purple.Hearts.2022.1080p.NF.WEBRip.DDP5.1.Atmos.x264-SMURF 5.65GB

[复制链接]
蓝光币
886
发表于 2022-7-29 17:26:11 | 显示全部楼层 |阅读模式


◎标  题 紫心之恋
◎片  名 Purple Hearts
◎年  代 2022
◎产  地 美国
◎类  别 剧情 / 恋爱 / 音乐
◎语  言 英语
◎上映日期 2022-07-29(美国收集)
◎IMDb链接 https://www.imdb.com/title/tt4614584/
◎豆瓣链接 https://movie.douban.com/subject/35955845/
◎片  长 122分钟
◎导  演 伊丽莎白·艾伦 Elizabeth Allen
◎编  剧 丽兹·加西亚 Liz W. Garcia
◎演  员 尼古拉斯·加利齐纳 Nicholas Galitzine
       索菲亚·卡尔森 Sofia Carson
       林登·阿什比 Linden Ashby
       约翰·哈伦·金 John Harlan Kim
       乔森·雅各布 Chosen Jacobs
       卡特里娜·坎宁安 Katrina Cunningham
       斯科特·德克特 Scott Deckert
       阿桑特·琼斯 Asante Jones
       黛比·范 Debbie Fan
       斯利姆·克什里 Slim Khezri
       亚历克斯·威克索 Alex Wexo
◎简  介

  虽然存在很多分歧,受精神疾病困扰的创作歌手卡西和堕入窘境的水兵陆战队员卢克赞成仅出于好处而成婚。可是当悲剧发生时,实在和子虚之间的界限起头变得模糊……
  1. Video
  2. ID                                       : 1
  3. Format                                   : AVC
  4. Format/Info                              : Advanced Video Codec
  5. Format profile                           : [email protected]
  6. Format settings                          : CABAC / 3 Ref Frames
  7. Format settings, CABAC                   : Yes
  8. Format settings, Reference frames        : 3 frames
  9. Codec ID                                 : V_MPEG4/ISO/AVC
  10. Duration                                 : 2 h 4 min
  11. Bit rate mode                            : Variable
  12. Bit rate                                 : 5 800 kb/s
  13. Maximum bit rate                         : 8 700 kb/s
  14. Width                                    : 1 920 pixels
  15. Height                                   : 1 080 pixels
  16. Display aspect ratio                     : 16:9
  17. Frame rate mode                          : Constant
  18. Frame rate                               : 24.000 FPS
  19. Color space                              : YUV
  20. Chroma subsampling                       : 4:2:0
  21. Bit depth                                : 8 bits
  22. Scan type                                : Progressive
  23. Bits/(Pixel*Frame)                       : 0.117
  24. Stream size                              : 4.97 GiB (88%)
  25. Writing library                          : x264 core 148 r2727 7d026e8
  26. Encoding settings                        : cabac=1 / ref=3 / deblock=1:0:0 / analyse=0x1:0x111 / me=umh / subme=10 / psy=1 / psy_rd=1.00:0.00 / mixed_ref=1 / me_range=24 / chroma_me=1 / trellis=2 / 8x8dct=0 / cqm=0 / deadzone=21,11 / fast_pskip=1 / chroma_qp_offset=-2 / threads=6 / lookahead_threads=1 / sliced_threads=0 / nr=0 / decimate=1 / interlaced=0 / bluray_compat=0 / stitchable=1 / constrained_intra=0 / bframes=2 / b_pyramid=0 / b_adapt=2 / b_bias=0 / direct=3 / weightb=1 / open_gop=0 / weightp=2 / keyint=250 / keyint_min=24 / scenecut=0 / intra_refresh=0 / rc_lookahead=48 / rc=2pass / mbtree=1 / bitrate=5800 / ratetol=1.0 / qcomp=0.50 / qpmin=6 / qpmax=51 / qpstep=4 / cplxblur=20.0 / qblur=0.5 / vbv_maxrate=8700 / vbv_bufsize=11600 / nal_hrd=vbr / filler=0 / ip_ratio=1.40 / aq=1:1.00
  27. Language                                 : English
  28. Default                                  : Yes
  29. Forced                                   : No
  30. Audio
  31. ID                                       : 2
  32. Format                                   : E-AC-3 JOC
  33. Format/Info                              : Enhanced AC-3 with Joint Object Coding
  34. Commercial name                          : Dolby Digital Plus with Dolby Atmos
  35. Codec ID                                 : A_EAC3
  36. Duration                                 : 2 h 4 min
  37. Bit rate mode                            : Constant
  38. Bit rate                                 : 768 kb/s
  39. Channel(s)                               : 6 channels
  40. Channel layout                           : L R C LFE Ls Rs
  41. Sampling rate                            : 48.0 kHz
  42. Frame rate                               : 31.250 FPS (1536 SPF)
  43. Compression mode                         : Lossy
  44. Stream size                              : 684 MiB (12%)
  45. Language                                 : English
  46. Service kind                             : Complete Main
  47. Default                                  : Yes
  48. Forced                                   : No
  49. Complexity index                         : 16
  50. Number of dynamic objects                : 15
  51. Bed channel count                        : 1 channel
  52. Bed channel configuration                : LFE
  53. Text #1
  54. ID                                       : 3
  55. Format                                   : UTF-8
  56. Codec ID                                 : S_TEXT/UTF8
  57. Codec ID/Info                            : UTF-8 Plain Text
  58. Duration                                 : 1 h 56 min
  59. Bit rate                                 : 59 b/s
  60. Frame rate                               : 0.224 FPS
  61. Count of elements                        : 1562
  62. Stream size                              : 50.7 KiB (0%)
  63. Language                                 : English
  64. Default                                  : No
  65. Forced                                   : No
  66. Text #2
  67. ID                                       : 4
  68. Format                                   : UTF-8
  69. Codec ID                                 : S_TEXT/UTF8
  70. Codec ID/Info                            : UTF-8 Plain Text
  71. Duration                                 : 2 h 1 min
  72. Bit rate                                 : 84 b/s
  73. Frame rate                               : 0.315 FPS
  74. Count of elements                        : 2292
  75. Stream size                              : 75.4 KiB (0%)
  76. Title                                    : SDH
  77. Language                                 : English
  78. Default                                  : No
  79. Forced                                   : No
  80. Text #3
  81. ID                                       : 5
  82. Format                                   : UTF-8
  83. Codec ID                                 : S_TEXT/UTF8
  84. Codec ID/Info                            : UTF-8 Plain Text
  85. Duration                                 : 2 h 2 min
  86. Bit rate                                 : 107 b/s
  87. Frame rate                               : 0.225 FPS
  88. Count of elements                        : 1647
  89. Stream size                              : 96.1 KiB (0%)
  90. Language                                 : Arabic
  91. Default                                  : No
  92. Forced                                   : No
  93. Text #4
  94. ID                                       : 6
  95. Format                                   : UTF-8
  96. Codec ID                                 : S_TEXT/UTF8
  97. Codec ID/Info                            : UTF-8 Plain Text
  98. Duration                                 : 2 h 2 min
  99. Bit rate                                 : 51 b/s
  100. Frame rate                               : 0.217 FPS
  101. Count of elements                        : 1593
  102. Stream size                              : 45.8 KiB (0%)
  103. Language                                 : Catalan
  104. Default                                  : No
  105. Forced                                   : No
  106. Text #5
  107. ID                                       : 7
  108. Format                                   : UTF-8
  109. Codec ID                                 : S_TEXT/UTF8
  110. Codec ID/Info                            : UTF-8 Plain Text
  111. Duration                                 : 2 h 2 min
  112. Bit rate                                 : 51 b/s
  113. Frame rate                               : 0.213 FPS
  114. Count of elements                        : 1560
  115. Stream size                              : 45.9 KiB (0%)
  116. Language                                 : Czech
  117. Default                                  : No
  118. Forced                                   : No
  119. Text #6
  120. ID                                       : 8
  121. Format                                   : UTF-8
  122. Codec ID                                 : S_TEXT/UTF8
  123. Codec ID/Info                            : UTF-8 Plain Text
  124. Duration                                 : 2 h 2 min
  125. Bit rate                                 : 49 b/s
  126. Frame rate                               : 0.204 FPS
  127. Count of elements                        : 1494
  128. Stream size                              : 44.1 KiB (0%)
  129. Language                                 : Danish
  130. Default                                  : No
  131. Forced                                   : No
  132. Text #7
  133. ID                                       : 9
  134. Format                                   : UTF-8
  135. Codec ID                                 : S_TEXT/UTF8
  136. Codec ID/Info                            : UTF-8 Plain Text
  137. Duration                                 : 2 h 2 min
  138. Bit rate                                 : 53 b/s
  139. Frame rate                               : 0.209 FPS
  140. Count of elements                        : 1531
  141. Stream size                              : 47.7 KiB (0%)
  142. Language                                 : German
  143. Default                                  : No
  144. Forced                                   : No
  145. Text #8
  146. ID                                       : 10
  147. Format                                   : UTF-8
  148. Codec ID                                 : S_TEXT/UTF8
  149. Codec ID/Info                            : UTF-8 Plain Text
  150. Duration                                 : 1 h 56 min
  151. Bit rate                                 : 67 b/s
  152. Frame rate                               : 0.243 FPS
  153. Count of elements                        : 1703
  154. Stream size                              : 57.6 KiB (0%)
  155. Language                                 : German
  156. Default                                  : No
  157. Forced                                   : No
  158. Text #9
  159. ID                                       : 11
  160. Format                                   : UTF-8
  161. Codec ID                                 : S_TEXT/UTF8
  162. Codec ID/Info                            : UTF-8 Plain Text
  163. Duration                                 : 1 h 56 min
  164. Bit rate                                 : 79 b/s
  165. Frame rate                               : 0.285 FPS
  166. Count of elements                        : 1995
  167. Stream size                              : 67.9 KiB (0%)
  168. Title                                    : SDH
  169. Language                                 : German
  170. Default                                  : No
  171. Forced                                   : No
  172. Text #10
  173. ID                                       : 12
  174. Format                                   : UTF-8
  175. Codec ID                                 : S_TEXT/UTF8
  176. Codec ID/Info                            : UTF-8 Plain Text
  177. Duration                                 : 2 h 2 min
  178. Bit rate                                 : 87 b/s
  179. Frame rate                               : 0.215 FPS
  180. Count of elements                        : 1576
  181. Stream size                              : 78.2 KiB (0%)
  182. Language                                 : Greek
  183. Default                                  : No
  184. Forced                                   : No
  185. Text #11
  186. ID                                       : 13
  187. Format                                   : UTF-8
  188. Codec ID                                 : S_TEXT/UTF8
  189. Codec ID/Info                            : UTF-8 Plain Text
  190. Duration                                 : 2 h 2 min
  191. Bit rate                                 : 53 b/s
  192. Frame rate                               : 0.218 FPS
  193. Count of elements                        : 1595
  194. Stream size                              : 48.2 KiB (0%)
  195. Language                                 : Spanish
  196. Default                                  : No
  197. Forced                                   : No
  198. Text #12
  199. ID                                       : 14
  200. Format                                   : UTF-8
  201. Codec ID                                 : S_TEXT/UTF8
  202. Codec ID/Info                            : UTF-8 Plain Text
  203. Duration                                 : 2 h 2 min
  204. Bit rate                                 : 49 b/s
  205. Frame rate                               : 0.215 FPS
  206. Count of elements                        : 1575
  207. Stream size                              : 44.6 KiB (0%)
  208. Language                                 : Spanish
  209. Default                                  : No
  210. Forced                                   : No
  211. Text #13
  212. ID                                       : 15
  213. Format                                   : UTF-8
  214. Codec ID                                 : S_TEXT/UTF8
  215. Codec ID/Info                            : UTF-8 Plain Text
  216. Duration                                 : 2 h 2 min
  217. Bit rate                                 : 52 b/s
  218. Frame rate                               : 0.216 FPS
  219. Count of elements                        : 1587
  220. Stream size                              : 46.9 KiB (0%)
  221. Title                                    : European
  222. Language                                 : Spanish
  223. Default                                  : No
  224. Forced                                   : No
  225. Text #14
  226. ID                                       : 16
  227. Format                                   : UTF-8
  228. Codec ID                                 : S_TEXT/UTF8
  229. Codec ID/Info                            : UTF-8 Plain Text
  230. Duration                                 : 2 h 2 min
  231. Bit rate                                 : 68 b/s
  232. Frame rate                               : 0.276 FPS
  233. Count of elements                        : 2028
  234. Stream size                              : 61.7 KiB (0%)
  235. Title                                    : SDH
  236. Language                                 : Spanish
  237. Default                                  : No
  238. Forced                                   : No
  239. Text #15
  240. ID                                       : 17
  241. Format                                   : UTF-8
  242. Codec ID                                 : S_TEXT/UTF8
  243. Codec ID/Info                            : UTF-8 Plain Text
  244. Duration                                 : 2 h 2 min
  245. Bit rate                                 : 49 b/s
  246. Frame rate                               : 0.220 FPS
  247. Count of elements                        : 1616
  248. Stream size                              : 44.1 KiB (0%)
  249. Language                                 : Basque
  250. Default                                  : No
  251. Forced                                   : No
  252. Text #16
  253. ID                                       : 18
  254. Format                                   : UTF-8
  255. Codec ID                                 : S_TEXT/UTF8
  256. Codec ID/Info                            : UTF-8 Plain Text
  257. Duration                                 : 2 h 2 min
  258. Bit rate                                 : 44 b/s
  259. Frame rate                               : 0.152 FPS
  260. Count of elements                        : 1118
  261. Stream size                              : 39.7 KiB (0%)
  262. Language                                 : Finnish
  263. Default                                  : No
  264. Forced                                   : No
  265. Text #17
  266. ID                                       : 19
  267. Format                                   : UTF-8
  268. Codec ID                                 : S_TEXT/UTF8
  269. Codec ID/Info                            : UTF-8 Plain Text
  270. Duration                                 : 2 h 2 min
  271. Bit rate                                 : 52 b/s
  272. Frame rate                               : 0.218 FPS
  273. Count of elements                        : 1601
  274. Stream size                              : 46.9 KiB (0%)
  275. Language                                 : fil
  276. Default                                  : No
  277. Forced                                   : No
  278. Text #18
  279. ID                                       : 20
  280. Format                                   : UTF-8
  281. Codec ID                                 : S_TEXT/UTF8
  282. Codec ID/Info                            : UTF-8 Plain Text
  283. Duration                                 : 2 h 2 min
  284. Bit rate                                 : 51 b/s
  285. Frame rate                               : 0.211 FPS
  286. Count of elements                        : 1546
  287. Stream size                              : 45.9 KiB (0%)
  288. Language                                 : French
  289. Default                                  : No
  290. Forced                                   : No
  291. Text #19
  292. ID                                       : 21
  293. Format                                   : UTF-8
  294. Codec ID                                 : S_TEXT/UTF8
  295. Codec ID/Info                            : UTF-8 Plain Text
  296. Duration                                 : 2 h 1 min
  297. Bit rate                                 : 58 b/s
  298. Frame rate                               : 0.215 FPS
  299. Count of elements                        : 1575
  300. Stream size                              : 51.9 KiB (0%)
  301. Language                                 : French
  302. Default                                  : No
  303. Forced                                   : No
  304. Text #20
  305. ID                                       : 22
  306. Format                                   : UTF-8
  307. Codec ID                                 : S_TEXT/UTF8
  308. Codec ID/Info                            : UTF-8 Plain Text
  309. Duration                                 : 2 h 2 min
  310. Bit rate                                 : 77 b/s
  311. Frame rate                               : 0.290 FPS
  312. Count of elements                        : 2126
  313. Stream size                              : 69.2 KiB (0%)
  314. Title                                    : SDH
  315. Language                                 : French
  316. Default                                  : No
  317. Forced                                   : No
  318. Text #21
  319. ID                                       : 23
  320. Format                                   : UTF-8
  321. Codec ID                                 : S_TEXT/UTF8
  322. Codec ID/Info                            : UTF-8 Plain Text
  323. Duration                                 : 2 h 2 min
  324. Bit rate                                 : 47 b/s
  325. Frame rate                               : 0.219 FPS
  326. Count of elements                        : 1608
  327. Stream size                              : 42.2 KiB (0%)
  328. Language                                 : Galician
  329. Default                                  : No
  330. Forced                                   : No
  331. Text #22
  332. ID                                       : 24
  333. Format                                   : UTF-8
  334. Codec ID                                 : S_TEXT/UTF8
  335. Codec ID/Info                            : UTF-8 Plain Text
  336. Duration                                 : 2 h 2 min
  337. Bit rate                                 : 91 b/s
  338. Frame rate                               : 0.220 FPS
  339. Count of elements                        : 1615
  340. Stream size                              : 82.0 KiB (0%)
  341. Language                                 : Hebrew
  342. Default                                  : No
  343. Forced                                   : No
  344. Text #23
  345. ID                                       : 25
  346. Format                                   : UTF-8
  347. Codec ID                                 : S_TEXT/UTF8
  348. Codec ID/Info                            : UTF-8 Plain Text
  349. Duration                                 : 2 h 2 min
  350. Bit rate                                 : 46 b/s
  351. Frame rate                               : 0.213 FPS
  352. Count of elements                        : 1559
  353. Stream size                              : 41.8 KiB (0%)
  354. Language                                 : Croatian
  355. Default                                  : No
  356. Forced                                   : No
  357. Text #24
  358. ID                                       : 26
  359. Format                                   : UTF-8
  360. Codec ID                                 : S_TEXT/UTF8
  361. Codec ID/Info                            : UTF-8 Plain Text
  362. Duration                                 : 2 h 2 min
  363. Bit rate                                 : 53 b/s
  364. Frame rate                               : 0.209 FPS
  365. Count of elements                        : 1530
  366. Stream size                              : 48.2 KiB (0%)
  367. Language                                 : Hungarian
  368. Default                                  : No
  369. Forced                                   : No
  370. Text #25
  371. ID                                       : 27
  372. Format                                   : UTF-8
  373. Codec ID                                 : S_TEXT/UTF8
  374. Codec ID/Info                            : UTF-8 Plain Text
  375. Duration                                 : 2 h 2 min
  376. Bit rate                                 : 49 b/s
  377. Frame rate                               : 0.219 FPS
  378. Count of elements                        : 1604
  379. Stream size                              : 44.3 KiB (0%)
  380. Language                                 : Indonesian
  381. Default                                  : No
  382. Forced                                   : No
  383. Text #26
  384. ID                                       : 28
  385. Format                                   : UTF-8
  386. Codec ID                                 : S_TEXT/UTF8
  387. Codec ID/Info                            : UTF-8 Plain Text
  388. Duration                                 : 2 h 2 min
  389. Bit rate                                 : 50 b/s
  390. Frame rate                               : 0.206 FPS
  391. Count of elements                        : 1514
  392. Stream size                              : 45.4 KiB (0%)
  393. Language                                 : Italian
  394. Default                                  : No
  395. Forced                                   : No
  396. Text #27
  397. ID                                       : 29
  398. Format                                   : UTF-8
  399. Codec ID                                 : S_TEXT/UTF8
  400. Codec ID/Info                            : UTF-8 Plain Text
  401. Duration                                 : 2 h 2 min
  402. Bit rate                                 : 58 b/s
  403. Frame rate                               : 0.243 FPS
  404. Count of elements                        : 1785
  405. Stream size                              : 52.3 KiB (0%)
  406. Language                                 : Japanese
  407. Default                                  : No
  408. Forced                                   : No
  409. Text #28
  410. ID                                       : 30
  411. Format                                   : UTF-8
  412. Codec ID                                 : S_TEXT/UTF8
  413. Codec ID/Info                            : UTF-8 Plain Text
  414. Duration                                 : 2 h 2 min
  415. Bit rate                                 : 69 b/s
  416. Frame rate                               : 0.219 FPS
  417. Count of elements                        : 1608
  418. Stream size                              : 62.2 KiB (0%)
  419. Language                                 : Korean
  420. Default                                  : No
  421. Forced                                   : No
  422. Text #29
  423. ID                                       : 31
  424. Format                                   : UTF-8
  425. Codec ID                                 : S_TEXT/UTF8
  426. Codec ID/Info                            : UTF-8 Plain Text
  427. Duration                                 : 2 h 2 min
  428. Bit rate                                 : 52 b/s
  429. Frame rate                               : 0.214 FPS
  430. Count of elements                        : 1572
  431. Stream size                              : 46.6 KiB (0%)
  432. Language                                 : Malay
  433. Default                                  : No
  434. Forced                                   : No
  435. Text #30
  436. ID                                       : 32
  437. Format                                   : UTF-8
  438. Codec ID                                 : S_TEXT/UTF8
  439. Codec ID/Info                            : UTF-8 Plain Text
  440. Duration                                 : 2 h 2 min
  441. Bit rate                                 : 51 b/s
  442. Frame rate                               : 0.199 FPS
  443. Count of elements                        : 1458
  444. Stream size                              : 45.8 KiB (0%)
  445. Language                                 : Norwegian Bokmal
  446. Default                                  : No
  447. Forced                                   : No
  448. Text #31
  449. ID                                       : 33
  450. Format                                   : UTF-8
  451. Codec ID                                 : S_TEXT/UTF8
  452. Codec ID/Info                            : UTF-8 Plain Text
  453. Duration                                 : 1 h 56 min
  454. Bit rate                                 : 56 b/s
  455. Frame rate                               : 0.197 FPS
  456. Count of elements                        : 1381
  457. Stream size                              : 47.9 KiB (0%)
  458. Language                                 : Dutch
  459. Default                                  : No
  460. Forced                                   : No
  461. Text #32
  462. ID                                       : 34
  463. Format                                   : UTF-8
  464. Codec ID                                 : S_TEXT/UTF8
  465. Codec ID/Info                            : UTF-8 Plain Text
  466. Duration                                 : 2 h 2 min
  467. Bit rate                                 : 50 b/s
  468. Frame rate                               : 0.215 FPS
  469. Count of elements                        : 1580
  470. Stream size                              : 45.4 KiB (0%)
  471. Language                                 : Polish
  472. Default                                  : No
  473. Forced                                   : No
  474. Text #33
  475. ID                                       : 35
  476. Format                                   : UTF-8
  477. Codec ID                                 : S_TEXT/UTF8
  478. Codec ID/Info                            : UTF-8 Plain Text
  479. Duration                                 : 2 h 2 min
  480. Bit rate                                 : 49 b/s
  481. Frame rate                               : 0.212 FPS
  482. Count of elements                        : 1556
  483. Stream size                              : 44.6 KiB (0%)
  484. Language                                 : Portuguese
  485. Default                                  : No
  486. Forced                                   : No
  487. Text #34
  488. ID                                       : 36
  489. Format                                   : UTF-8
  490. Codec ID                                 : S_TEXT/UTF8
  491. Codec ID/Info                            : UTF-8 Plain Text
  492. Duration                                 : 2 h 2 min
  493. Bit rate                                 : 56 b/s
  494. Frame rate                               : 0.222 FPS
  495. Count of elements                        : 1632
  496. Stream size                              : 50.9 KiB (0%)
  497. Title                                    : Brazilian
  498. Language                                 : Portuguese
  499. Default                                  : No
  500. Forced                                   : No
  501. Text #35
  502. ID                                       : 37
  503. Format                                   : UTF-8
  504. Codec ID                                 : S_TEXT/UTF8
  505. Codec ID/Info                            : UTF-8 Plain Text
  506. Duration                                 : 2 h 2 min
  507. Bit rate                                 : 52 b/s
  508. Frame rate                               : 0.218 FPS
  509. Count of elements                        : 1597
  510. Stream size                              : 46.8 KiB (0%)
  511. Title                                    : Brazilian
  512. Language                                 : Portuguese
  513. Default                                  : No
  514. Forced                                   : No
  515. Text #36
  516. ID                                       : 38
  517. Format                                   : UTF-8
  518. Codec ID                                 : S_TEXT/UTF8
  519. Codec ID/Info                            : UTF-8 Plain Text
  520. Duration                                 : 2 h 2 min
  521. Bit rate                                 : 63 b/s
  522. Frame rate                               : 0.245 FPS
  523. Count of elements                        : 1796
  524. Stream size                              : 57.1 KiB (0%)
  525. Title                                    : Brazilian (SDH)
  526. Language                                 : Portuguese
  527. Default                                  : No
  528. Forced                                   : No
  529. Text #37
  530. ID                                       : 39
  531. Format                                   : UTF-8
  532. Codec ID                                 : S_TEXT/UTF8
  533. Codec ID/Info                            : UTF-8 Plain Text
  534. Duration                                 : 2 h 2 min
  535. Bit rate                                 : 57 b/s
  536. Frame rate                               : 0.203 FPS
  537. Count of elements                        : 1485
  538. Stream size                              : 51.7 KiB (0%)
  539. Language                                 : Romanian
  540. Default                                  : No
  541. Forced                                   : No
  542. Text #38
  543. ID                                       : 40
  544. Format                                   : UTF-8
  545. Codec ID                                 : S_TEXT/UTF8
  546. Codec ID/Info                            : UTF-8 Plain Text
  547. Duration                                 : 2 h 2 min
  548. Bit rate                                 : 86 b/s
  549. Frame rate                               : 0.219 FPS
  550. Count of elements                        : 1604
  551. Stream size                              : 77.4 KiB (0%)
  552. Language                                 : Russian
  553. Default                                  : No
  554. Forced                                   : No
  555. Text #39
  556. ID                                       : 41
  557. Format                                   : UTF-8
  558. Codec ID                                 : S_TEXT/UTF8
  559. Codec ID/Info                            : UTF-8 Plain Text
  560. Duration                                 : 2 h 2 min
  561. Bit rate                                 : 49 b/s
  562. Frame rate                               : 0.188 FPS
  563. Count of elements                        : 1377
  564. Stream size                              : 44.3 KiB (0%)
  565. Language                                 : Swedish
  566. Default                                  : No
  567. Forced                                   : No
  568. Text #40
  569. ID                                       : 42
  570. Format                                   : UTF-8
  571. Codec ID                                 : S_TEXT/UTF8
  572. Codec ID/Info                            : UTF-8 Plain Text
  573. Duration                                 : 2 h 2 min
  574. Bit rate                                 : 157 b/s
  575. Frame rate                               : 0.222 FPS
  576. Count of elements                        : 1629
  577. Stream size                              : 141 KiB (0%)
  578. Language                                 : Thai
  579. Default                                  : No
  580. Forced                                   : No
  581. Text #41
  582. ID                                       : 43
  583. Format                                   : UTF-8
  584. Codec ID                                 : S_TEXT/UTF8
  585. Codec ID/Info                            : UTF-8 Plain Text
  586. Duration                                 : 2 h 2 min
  587. Bit rate                                 : 51 b/s
  588. Frame rate                               : 0.217 FPS
  589. Count of elements                        : 1589
  590. Stream size                              : 45.9 KiB (0%)
  591. Language                                 : Turkish
  592. Default                                  : No
  593. Forced                                   : No
  594. Text #42
  595. ID                                       : 44
  596. Format                                   : UTF-8
  597. Codec ID                                 : S_TEXT/UTF8
  598. Codec ID/Info                            : UTF-8 Plain Text
  599. Duration                                 : 2 h 2 min
  600. Bit rate                                 : 79 b/s
  601. Frame rate                               : 0.216 FPS
  602. Count of elements                        : 1583
  603. Stream size                              : 71.5 KiB (0%)
  604. Language                                 : Ukrainian
  605. Default                                  : No
  606. Forced                                   : No
  607. Text #43
  608. ID                                       : 45
  609. Format                                   : UTF-8
  610. Codec ID                                 : S_TEXT/UTF8
  611. Codec ID/Info                            : UTF-8 Plain Text
  612. Duration                                 : 2 h 2 min
  613. Bit rate                                 : 76 b/s
  614. Frame rate                               : 0.215 FPS
  615. Count of elements                        : 1576
  616. Stream size                              : 68.2 KiB (0%)
  617. Language                                 : Vietnamese
  618. Default                                  : No
  619. Forced                                   : No
  620. Text #44
  621. ID                                       : 46
  622. Format                                   : UTF-8
  623. Codec ID                                 : S_TEXT/UTF8
  624. Codec ID/Info                            : UTF-8 Plain Text
  625. Duration                                 : 2 h 2 min
  626. Bit rate                                 : 58 b/s
  627. Frame rate                               : 0.222 FPS
  628. Count of elements                        : 1628
  629. Stream size                              : 52.2 KiB (0%)
  630. Title                                    : Simplified
  631. Language                                 : Chinese
  632. Default                                  : No
  633. Forced                                   : No
  634. Text #45
  635. ID                                       : 47
  636. Format                                   : UTF-8
  637. Codec ID                                 : S_TEXT/UTF8
  638. Codec ID/Info                            : UTF-8 Plain Text
  639. Duration                                 : 2 h 2 min
  640. Bit rate                                 : 61 b/s
  641. Frame rate                               : 0.228 FPS
  642. Count of elements                        : 1675
  643. Stream size                              : 55.3 KiB (0%)
  644. Title                                    : Traditional
  645. Language                                 : Chinese
  646. Default                                  : No
  647. Forced                                   : No
复制代码







                                       
                                       

                                       
                                       
                                       




回复

使用道具 举报

懒得打字嘛,点击右侧快捷回复 【右侧内容,后台自定义】
您需要登录后才可以回帖 登录 | 立即加入

本版积分规则

Archiver|小黑屋| 蓝光电影网 |网站地图

Copyright © 2021 Comsenz Inc. Powered by 蓝光电影网

蓝光电影网

本站内容由用户自主分享和转载自互联网,转载目的在于传递更多信息,并不代表本网赞同其观点和对其真实性负责。

如有侵权、违反国家法律政策行为,请联系我们,我们会第一时间及时清除和处理!

举报反馈邮箱:[email protected]

快速回复 返回顶部 返回列表