找回密码

蓝光电影网

查看: 61|回复: 0

[剧情] 单身航空 Alone.Together.2022.1080p.WEBRip.DD5.1.x264-CM 5.01GB

[复制链接]
蓝光币
1020
发表于 2022-7-29 17:41:20 | 显示全部楼层 |阅读模式


◎标  题 单身航空
◎片  名 Alone Together
◎年  代 2022
◎产  地 美国
◎类  别 剧情 / 恋爱
◎语  言 英语
◎上映日期 2022-06-14(翠贝卡电影节) / 2022-07-29(美国收集)
◎IMDb评分 5.7/10 (46人评价)
◎IMDb链接 https://www.imdb.com/title/tt14584284/
◎豆瓣链接 https://movie.douban.com/subject/35629816/
◎导  演 凯蒂·霍尔姆斯 Katie Holmes
◎编  剧 凯蒂·霍尔姆斯 Katie Holmes
◎演  员 凯蒂·霍尔姆斯 Katie Holmes
       吉姆·斯特吉斯 Jim Sturgess
       德里克·卢克 Derek Luke
       梅丽莎·里奥 Melissa Leo
       卢克·柯比 Luke Kirby
       佐莎·马梅特 Zosia Mamet
       贝琦·安·贝克 Becky Ann Baker
◎简  介

  两个关系欠好的陌生人终极在纽约北部的同一家航空公司工作。
  1. Video
  2. ID                                       : 1
  3. Format                                   : AVC
  4. Format/Info                              : Advanced Video Codec
  5. Format profile                           : [email protected]
  6. Format settings                          : CABAC / 5 Ref Frames
  7. Format settings, CABAC                   : Yes
  8. Format settings, Reference frames        : 5 frames
  9. Codec ID                                 : V_MPEG4/ISO/AVC
  10. Duration                                 : 1 h 41 min
  11. Bit rate                                 : 6 717 kb/s
  12. Width                                    : 1 908 pixels
  13. Height                                   : 792 pixels
  14. Display aspect ratio                     : 2.40:1
  15. Frame rate mode                          : Constant
  16. Frame rate                               : 23.976 (24000/1001/189150) FPS
  17. Color space                              : YUV
  18. Chroma subsampling                       : 4:2:0
  19. Bit depth                                : 8 bits
  20. Scan type                                : Progressive
  21. Bits/(Pixel*Frame)                       : 0.185
  22. Stream size                              : 4.74 GiB (95%)
  23. Language                                 : English
  24. Default                                  : Yes
  25. Forced                                   : No
  26. Color range                              : Limited
  27. Color primaries                          : BT.709
  28. Transfer characteristics                 : BT.709
  29. Matrix coefficients                      : BT.709
  30. Audio
  31. ID                                       : 2
  32. Format                                   : AC-3
  33. Format/Info                              : Audio Coding 3
  34. Commercial name                          : Dolby Digital
  35. Codec ID                                 : A_AC3
  36. Duration                                 : 1 h 41 min
  37. Bit rate mode                            : Constant
  38. Bit rate                                 : 384 kb/s
  39. Channel(s)                               : 6 channels
  40. Channel layout                           : L R C LFE Ls Rs
  41. Sampling rate                            : 48.0 kHz
  42. Frame rate                               : 31.250 FPS (1536 SPF)
  43. Compression mode                         : Lossy
  44. Stream size                              : 278 MiB (5%)
  45. Language                                 : English
  46. Service kind                             : Complete Main
  47. Default                                  : Yes
  48. Forced                                   : No
  49. Text #1
  50. ID                                       : 3
  51. Format                                   : UTF-8
  52. Codec ID                                 : S_TEXT/UTF8
  53. Codec ID/Info                            : UTF-8 Plain Text
  54. Duration                                 : 1 h 40 min
  55. Bit rate                                 : 60 b/s
  56. Frame rate                               : 0.281 FPS
  57. Count of elements                        : 1689
  58. Stream size                              : 44.6 KiB (0%)
  59. Title                                    : SDH
  60. Language                                 : English
  61. Default                                  : No
  62. Forced                                   : No
  63. Text #2
  64. ID                                       : 4
  65. Format                                   : UTF-8
  66. Codec ID                                 : S_TEXT/UTF8
  67. Codec ID/Info                            : UTF-8 Plain Text
  68. Duration                                 : 1 h 39 min
  69. Bit rate                                 : 56 b/s
  70. Frame rate                               : 0.261 FPS
  71. Count of elements                        : 1561
  72. Stream size                              : 41.2 KiB (0%)
  73. Language                                 : English
  74. Default                                  : No
  75. Forced                                   : No
  76. Menu
  77. 00:00:00.000                             : Chapter 01
  78. 00:04:00.699                             : Chapter 02
  79. 00:20:21.304                             : Chapter 03
  80. 00:37:40.427                             : Chapter 04
  81. 00:51:53.238                             : Chapter 05
  82. 01:06:00.710                             : Chapter 06
  83. 01:13:51.056                             : Chapter 07
  84. 01:25:33.341                             : Chapter 08
  85. 01:38:33.496                             : Chapter 09
复制代码







                                       
                                       

                                       
                                       
                                       




回复

使用道具 举报

懒得打字嘛,点击右侧快捷回复 【右侧内容,后台自定义】
您需要登录后才可以回帖 登录 | 立即加入

本版积分规则

Archiver|小黑屋| 蓝光电影网 |网站地图

Copyright © 2021 Comsenz Inc. Powered by 蓝光电影网

蓝光电影网

本站内容由用户自主分享和转载自互联网,转载目的在于传递更多信息,并不代表本网赞同其观点和对其真实性负责。

如有侵权、违反国家法律政策行为,请联系我们,我们会第一时间及时清除和处理!

举报反馈邮箱:[email protected]

快速回复 返回顶部 返回列表