找回密码

蓝光电影网

查看: 66|回复: 0

[喜剧] 年度人物 The.Man.of.the.Year.2003.PORTUGUESE.1080p.WEBRip.AAC2.0.x264-NOGRP 3.51GB

[复制链接]
蓝光币
1022
发表于 2022-7-29 17:42:09 | 显示全部楼层 |阅读模式


◎标  题 年度人物
◎译  名 The Man of the Year
◎片  名 O Homem do Ano
◎年  代 2003
◎产  地 巴西
◎类  别 笑剧 / 行动 / 犯罪
◎语  言 葡萄牙语
◎上映日期 2003-05-16
◎IMDb评分 7.1/10 (2917人评价)
◎IMDb链接 https://www.imdb.com/title/tt0312773/
◎豆瓣评分 7.0/10 (52人评价)
◎豆瓣链接 https://movie.douban.com/subject/1859918/
◎片  长 113 分钟
◎导  演 José Henrique Fonseca José Henrique Fonseca
◎编  剧 Patrícia Melo Patrícia Melo
       Rubem Fonseca Rubem Fonseca
◎演  员 José Henrique Fonseca José Henrique Fonseca
       奥隆·菲格雷多 Orã Figueiredo
       Agildo Ribeiro Agildo Ribeiro
       保罗·塞萨尔·佩雷奥 Paulo César Peréio
       若泽·威尔克 José Wilker
       克劳迪亚·阿布瑞 Cláudia Abreu
       拉萨罗·拉莫斯 Lázaro Ramos
       玛里亚娜·希梅内斯 Mariana Ximenes
       穆里略·本尼西奥 Murilo Benício
       Romeu Evaristo Romeu Evaristo
       Jorge Dória Jorge Dória
       Amir Haddad Amir Haddad
       安德烈·贡萨尔维斯 André Gonçalves
       娜塔莉娅·拉热 Natália Lage
       Vick Militello Vick Militello
       瓦格纳·马拉 Wagner Moura
       福拉维·R·汤贝尼尼 Flávio R. Tambellini
       José Henrique Fonseca José Henrique Fonseca
       Dado Villa-Lobos Dado Villa-Lobos
       布雷诺·西尔韦拉 Breno Silveira
       Sérgio Mekler Sérgio Mekler
       Toni Vanzolini Toni Vanzolini
       Claudia Kopke Claudia Kopke
       Juliana Mendes Juliana Mendes
       Andre Waller Andre Waller
◎简  介

  Maiquel has lost a bet and dyed his hair blond. This little event triggers a head-on collision with destiny in which Maiquel goes from nobody to hero to outlaw--all in 24 hours.
  1. Video
  2. ID                                       : 1
  3. Format                                   : AVC
  4. Format/Info                              : Advanced Video Codec
  5. Format profile                           : [email protected]
  6. Format settings                          : CABAC / 2 Ref Frames
  7. Format settings, CABAC                   : Yes
  8. Format settings, Reference frames        : 2 frames
  9. Codec ID                                 : V_MPEG4/ISO/AVC
  10. Duration                                 : 1 h 45 min
  11. Bit rate                                 : 4 660 kb/s
  12. Width                                    : 1 920 pixels
  13. Height                                   : 1 080 pixels
  14. Display aspect ratio                     : 16:9
  15. Frame rate mode                          : Constant
  16. Frame rate                               : 29.970 (30000/1001/189150) FPS
  17. Color space                              : YUV
  18. Chroma subsampling                       : 4:2:0
  19. Bit depth                                : 8 bits
  20. Scan type                                : Progressive
  21. Bits/(Pixel*Frame)                       : 0.075
  22. Stream size                              : 3.42 GiB (97%)
  23. Writing library                          : x264 core 155
  24. Encoding settings                        : cabac=1 / ref=2 / deblock=1:0:0 / analyse=0x3:0x113 / me=hex / subme=4 / psy=1 / psy_rd=1.00:0.00 / mixed_ref=0 / me_range=16 / chroma_me=1 / trellis=1 / 8x8dct=1 / cqm=0 / deadzone=21,11 / fast_pskip=1 / chroma_qp_offset=0 / threads=34 / lookahead_threads=8 / sliced_threads=0 / nr=0 / decimate=1 / interlaced=0 / bluray_compat=0 / constrained_intra=0 / bframes=1 / b_pyramid=0 / b_adapt=1 / b_bias=0 / direct=1 / weightb=1 / open_gop=0 / weightp=1 / keyint=30 / keyint_min=16 / scenecut=0 / intra_refresh=0 / rc=2pass / mbtree=0 / bitrate=4660 / ratetol=1.0 / qcomp=0.60 / qpmin=0 / qpmax=69 / qpstep=4 / cplxblur=20.0 / qblur=0.5 / ip_ratio=1.40 / pb_ratio=1.30 / aq=1:1.00
  25. Default                                  : Yes
  26. Forced                                   : No
  27. Audio
  28. ID                                       : 2
  29. Format                                   : AAC LC
  30. Format/Info                              : Advanced Audio Codec Low Complexity
  31. Codec ID                                 : A_AAC-2
  32. Duration                                 : 1 h 45 min
  33. Bit rate                                 : 128 kb/s
  34. Channel(s)                               : 2 channels
  35. Channel layout                           : L R
  36. Sampling rate                            : 44.1 kHz
  37. Frame rate                               : 43.066 FPS (1024 SPF)
  38. Compression mode                         : Lossy
  39. Stream size                              : 96.2 MiB (3%)
  40. Language                                 : Portuguese
  41. Default                                  : Yes
  42. Forced                                   : No
  43. Text
  44. ID                                       : 3
  45. Format                                   : UTF-8
  46. Codec ID                                 : S_TEXT/UTF8
  47. Codec ID/Info                            : UTF-8 Plain Text
  48. Duration                                 : 1 h 39 min
  49. Bit rate                                 : 54 b/s
  50. Frame rate                               : 0.166 FPS
  51. Count of elements                        : 994
  52. Stream size                              : 39.7 KiB (0%)
  53. Language                                 : English
  54. Default                                  : Yes
  55. Forced                                   : No
复制代码







                                       
                                       

                                       
                                       
                                       




回复

使用道具 举报

懒得打字嘛,点击右侧快捷回复 【右侧内容,后台自定义】
您需要登录后才可以回帖 登录 | 立即加入

本版积分规则

Archiver|小黑屋| 蓝光电影网 |网站地图

Copyright © 2021 Comsenz Inc. Powered by 蓝光电影网

蓝光电影网

本站内容由用户自主分享和转载自互联网,转载目的在于传递更多信息,并不代表本网赞同其观点和对其真实性负责。

如有侵权、违反国家法律政策行为,请联系我们,我们会第一时间及时清除和处理!

举报反馈邮箱:[email protected]

快速回复 返回顶部 返回列表