找回密码

蓝光电影网

查看: 18|回复: 0

[惊悚] 天堂高速 Paradise.Highway.2022.1080p.WEBRip.DD5.1.x264-CM 5.68GB

[复制链接]
蓝光币
886
发表于 2022-7-29 17:40:48 | 显示全部楼层 |阅读模式


◎标  题 天堂高速
◎译  名 天堂高速公路 / Leila M.
◎片  名 Paradise Highway
◎年  代 2022
◎产  地 德国 / 美国
◎类  别 惊悚
◎语  言 英语
◎上映日期 2022-07-29(美国)
◎IMDb链接 https://www.imdb.com/title/tt7469828/
◎豆瓣链接 https://movie.douban.com/subject/35511246/
◎片  长 115分钟
◎导  演 Anna Gutto Anna Gutto
◎编  剧 Anna Gutto Anna Gutto
◎演  员 摩根·弗里曼 Morgan Freeman
       朱丽叶·比诺什 Juliette Binoche
       弗兰克·格里罗 Frank Grillo
       卡梅隆·莫纳汉 Cameron Monaghan
       克里丝蒂安·赛德尔 Christiane Seidel
       维罗尼卡·费瑞尔 Veronica Ferres
       杰基·达拉斯 Jackie Dallas
       哈拉·芬利 Hala Finley
       托米·厄尔·詹金斯 Tommie Earl Jenkins
       朱万达斯·坎迪斯 Jwaundace Candece
       贾登·汉密尔顿 Jayden Hamilton
       迪瓦·泰勒 Diva Tyler
       特蕾茜普弗 Tracy Pfau
       吉姆·多尔蒂 Jim Dougherty
        Raymond McAnally
       Judy Dickerson Judy Dickerson
        James Victor Bulian
        Tim Tanner
  1. Video
  2. ID                                       : 1
  3. Format                                   : AVC
  4. Format/Info                              : Advanced Video Codec
  5. Format profile                           : [email protected]
  6. Format settings                          : CABAC / 5 Ref Frames
  7. Format settings, CABAC                   : Yes
  8. Format settings, Reference frames        : 5 frames
  9. Codec ID                                 : V_MPEG4/ISO/AVC
  10. Duration                                 : 1 h 54 min
  11. Bit rate                                 : 6 707 kb/s
  12. Width                                    : 1 918 pixels
  13. Height                                   : 800 pixels
  14. Display aspect ratio                     : 2.40:1
  15. Original display aspect ratio            : 2.40:1
  16. Frame rate mode                          : Constant
  17. Frame rate                               : 23.976 (24000/1001/189150) FPS
  18. Color space                              : YUV
  19. Chroma subsampling                       : 4:2:0
  20. Bit depth                                : 8 bits
  21. Scan type                                : Progressive
  22. Bits/(Pixel*Frame)                       : 0.182
  23. Stream size                              : 5.37 GiB (95%)
  24. Language                                 : English
  25. Default                                  : Yes
  26. Forced                                   : No
  27. Color range                              : Limited
  28. Color primaries                          : BT.709
  29. Transfer characteristics                 : BT.709
  30. Matrix coefficients                      : BT.709
  31. Audio
  32. ID                                       : 2
  33. Format                                   : AC-3
  34. Format/Info                              : Audio Coding 3
  35. Commercial name                          : Dolby Digital
  36. Codec ID                                 : A_AC3
  37. Duration                                 : 1 h 54 min
  38. Bit rate mode                            : Constant
  39. Bit rate                                 : 384 kb/s
  40. Channel(s)                               : 6 channels
  41. Channel layout                           : L R C LFE Ls Rs
  42. Sampling rate                            : 48.0 kHz
  43. Frame rate                               : 31.250 FPS (1536 SPF)
  44. Compression mode                         : Lossy
  45. Stream size                              : 315 MiB (5%)
  46. Language                                 : English
  47. Service kind                             : Complete Main
  48. Default                                  : Yes
  49. Forced                                   : No
  50. Text #1
  51. ID                                       : 3
  52. Format                                   : UTF-8
  53. Codec ID                                 : S_TEXT/UTF8
  54. Codec ID/Info                            : UTF-8 Plain Text
  55. Duration                                 : 1 h 52 min
  56. Bit rate                                 : 49 b/s
  57. Frame rate                               : 0.190 FPS
  58. Count of elements                        : 1287
  59. Stream size                              : 40.9 KiB (0%)
  60. Title                                    : SDH
  61. Language                                 : English
  62. Default                                  : No
  63. Forced                                   : No
  64. Text #2
  65. ID                                       : 4
  66. Format                                   : UTF-8
  67. Codec ID                                 : S_TEXT/UTF8
  68. Codec ID/Info                            : UTF-8 Plain Text
  69. Duration                                 : 1 h 48 min
  70. Bit rate                                 : 44 b/s
  71. Frame rate                               : 0.168 FPS
  72. Count of elements                        : 1088
  73. Stream size                              : 35.4 KiB (0%)
  74. Language                                 : English
  75. Default                                  : No
  76. Forced                                   : No
  77. Menu
  78. 00:00:00.000                             : Chapter 01
  79. 00:15:18.376                             : Chapter 02
  80. 00:31:48.241                             : Chapter 03
  81. 00:49:40.438                             : Chapter 04
  82. 01:00:25.375                             : Chapter 05
  83. 01:17:09.004                             : Chapter 06
  84. 01:33:48.920                             : Chapter 07
  85. 01:50:01.518                             : Chapter 08
复制代码








                                       
                                       

                                       
                                       
                                       




回复

使用道具 举报

懒得打字嘛,点击右侧快捷回复 【右侧内容,后台自定义】
您需要登录后才可以回帖 登录 | 立即加入

本版积分规则

Archiver|小黑屋| 蓝光电影网 |网站地图

Copyright © 2021 Comsenz Inc. Powered by 蓝光电影网

蓝光电影网

本站内容由用户自主分享和转载自互联网,转载目的在于传递更多信息,并不代表本网赞同其观点和对其真实性负责。

如有侵权、违反国家法律政策行为,请联系我们,我们会第一时间及时清除和处理!

举报反馈邮箱:[email protected]

快速回复 返回顶部 返回列表