找回密码

蓝光电影网

查看: 67|回复: 0

[惊悚] 天堂高速 Paradise.Highway.2022.1080p.WEBRip.x264-RARBG 2.19GB

[复制链接]
蓝光币
1020
发表于 2022-7-29 17:39:00 | 显示全部楼层 |阅读模式


◎标  题 天堂高速
◎译  名 天堂高速公路 / Leila M.
◎片  名 Paradise Highway
◎年  代 2022
◎产  地 德国 / 美国
◎类  别 惊悚
◎语  言 英语
◎上映日期 2022-07-29(美国)
◎IMDb链接 https://www.imdb.com/title/tt7469828/
◎豆瓣链接 https://movie.douban.com/subject/35511246/
◎片  长 115分钟
◎导  演 Anna Gutto Anna Gutto
◎编  剧 Anna Gutto Anna Gutto
◎演  员 摩根·弗里曼 Morgan Freeman
       朱丽叶·比诺什 Juliette Binoche
       弗兰克·格里罗 Frank Grillo
       卡梅隆·莫纳汉 Cameron Monaghan
       克里丝蒂安·赛德尔 Christiane Seidel
       维罗尼卡·费瑞尔 Veronica Ferres
       杰基·达拉斯 Jackie Dallas
       哈拉·芬利 Hala Finley
       托米·厄尔·詹金斯 Tommie Earl Jenkins
       朱万达斯·坎迪斯 Jwaundace Candece
       贾登·汉密尔顿 Jayden Hamilton
       迪瓦·泰勒 Diva Tyler
       特蕾茜普弗 Tracy Pfau
       吉姆·多尔蒂 Jim Dougherty
        Raymond McAnally
       Judy Dickerson Judy Dickerson
        James Victor Bulian
        Tim Tanner
  1. Video
  2. ID                                       : 1
  3. Format                                   : AVC
  4. Format/Info                              : Advanced Video Codec
  5. Format profile                           : [email protected]
  6. Format settings                          : CABAC / 4 Ref Frames
  7. Format settings, CABAC                   : Yes
  8. Format settings, Reference frames        : 4 frames
  9. Codec ID                                 : avc1
  10. Codec ID/Info                            : Advanced Video Coding
  11. Duration                                 : 1 h 54 min
  12. Bit rate                                 : 2 500 kb/s
  13. Width                                    : 1 918 pixels
  14. Height                                   : 800 pixels
  15. Display aspect ratio                     : 2.40:1
  16. Original display aspect ratio            : 2.40:1
  17. Frame rate mode                          : Constant
  18. Frame rate                               : 23.976 (23976/1000/189150) FPS
  19. Color space                              : YUV
  20. Chroma subsampling                       : 4:2:0
  21. Bit depth                                : 8 bits
  22. Scan type                                : Progressive
  23. Bits/(Pixel*Frame)                       : 0.068
  24. Stream size                              : 2.00 GiB (92%)
  25. Writing library                          : x264 core 152 r2851M ba24899
  26. Encoding settings                        : cabac=1 / ref=4 / deblock=1:-1:-1 / analyse=0x3:0x113 / me=umh / subme=9 / psy=1 / psy_rd=1.00:0.15 / mixed_ref=1 / me_range=24 / chroma_me=1 / trellis=2 / 8x8dct=1 / cqm=0 / deadzone=21,11 / fast_pskip=1 / chroma_qp_offset=-3 / threads=16 / lookahead_threads=4 / sliced_threads=0 / nr=0 / decimate=1 / interlaced=0 / bluray_compat=0 / constrained_intra=0 / bframes=3 / b_pyramid=2 / b_adapt=2 / b_bias=0 / direct=3 / weightb=1 / open_gop=0 / weightp=2 / keyint=250 / keyint_min=25 / scenecut=40 / intra_refresh=0 / rc_lookahead=50 / rc=2pass / mbtree=1 / bitrate=2500 / ratetol=1.0 / qcomp=0.60 / qpmin=0 / qpmax=69 / qpstep=4 / cplxblur=20.0 / qblur=0.5 / vbv_maxrate=31250 / vbv_bufsize=31250 / nal_hrd=none / filler=0 / ip_ratio=1.40 / aq=3:1.00
  27. Encoded date                             : UTC 2022-07-29 05:29:09
  28. Tagged date                              : UTC 2022-07-29 05:29:09
  29. Codec configuration box                  : avcC
  30. Audio
  31. ID                                       : 2
  32. Format                                   : AAC LC
  33. Format/Info                              : Advanced Audio Codec Low Complexity
  34. Codec ID                                 : mp4a-40-2
  35. Duration                                 : 1 h 54 min
  36. Bit rate mode                            : Constant
  37. Bit rate                                 : 224 kb/s
  38. Channel(s)                               : 6 channels
  39. Channel layout                           : C L R Ls Rs LFE
  40. Sampling rate                            : 48.0 kHz
  41. Frame rate                               : 46.875 FPS (1024 SPF)
  42. Compression mode                         : Lossy
  43. Stream size                              : 184 MiB (8%)
  44. Language                                 : English
  45. Default                                  : Yes
  46. Alternate group                          : 1
  47. Encoded date                             : UTC 2022-07-29 05:29:09
  48. Tagged date                              : UTC 2022-07-29 05:29:09
复制代码








                                       
                                       

                                       
                                       
                                       




回复

使用道具 举报

懒得打字嘛,点击右侧快捷回复 【右侧内容,后台自定义】
您需要登录后才可以回帖 登录 | 立即加入

本版积分规则

Archiver|小黑屋| 蓝光电影网 |网站地图

Copyright © 2021 Comsenz Inc. Powered by 蓝光电影网

蓝光电影网

本站内容由用户自主分享和转载自互联网,转载目的在于传递更多信息,并不代表本网赞同其观点和对其真实性负责。

如有侵权、违反国家法律政策行为,请联系我们,我们会第一时间及时清除和处理!

举报反馈邮箱:[email protected]

快速回复 返回顶部 返回列表